Daily Archives: October 29, 2014

Ann Marie – My Girlfriend Ann Marie

 
General

Format : MPEG-4
Format profile : Base Media
Codec ID : isom
File size : 65.1 MiB
Duration : 7mn 57s
Overall bit rate : 1 143 Kbps
Writing application : Lavf56.4.101

Video
ID : 1
Format : AVC
Format/Info : Advanced Video Codec
Format profile : High@L3.0
Format settings, CABAC : Yes
Format settings, ReFrames : 4 frames
Codec ID : avc1
Codec ID/Info : Advanced Video Coding
Duration : 7mn 57s
Bit rate : 1 074 Kbps
Width : 638 pixels
Height : 480 pixels
Display aspect ratio : 4:3
Frame rate mode : Constant
Frame rate : 29.970 fps
Color space : YUV
Chroma subsampling : 4:2:0
Bit depth : 8 bits
Scan type : Progressive
Bits/(Pixel*Frame) : 0.117
Stream size : 61.1 MiB (94%)
Writing library : x264 core 142 r2431 ac76440
Encoding settings : cabac=1 / ref=3 / deblock=1:0:0 / analyse=0×3:0×113 / me=hex / subme=7 / psy=1 / psy_rd=1.00:0.00 / mixed_ref=1 / me_range=16 / chroma_me=1 / trellis=1 / 8x8dct=1 / cqm=0 / deadzone=21,11 / fast_pskip=1 / chroma_qp_offset=-2 / threads=12 / lookahead_threads=2 / sliced_threads=0 / nr=0 / decimate=1 / interlaced=0 / bluray_compat=0 / constrained_intra=0 / bframes=3 / b_pyramid=2 / b_adapt=1 / b_bias=0 / direct=1 / weightb=1 / open_gop=0 / weightp=2 / keyint=250 / keyint_min=25 / scenecut=40 / intra_refresh=0 / rc_lookahead=40 / rc=crf / mbtree=1 / crf=23.0 / qcomp=0.60 / qpmin=0 / qpmax=69 / qpstep=4 / ip_ratio=1.40 / aq=1:1.00

Audio
ID : 2
Format : AAC
Format/Info : Advanced Audio Codec
Format profile : LC
Codec ID : 40
Duration : 7mn 57s
Bit rate mode : Constant
Bit rate : 64.2 Kbps
Channel(s) : 2 channels
Channel positions : Front: L R
Sampling rate : 22.05 KHz
Compression mode : Lossy
Stream size : 3.65 MiB (6%)

Download :

http://dfiles.ru/files/1r1zhttd4
http://rapidgator.net/file/0d5e7f32cceb02429fb500d7664f4eaa/Ann_Marie_-_My_Girlfriend_Ann_Marie.zip.html

Angie Savage – Shake a Tail Feather

 
General

Format : MPEG-4
Format profile : Base Media
Codec ID : isom
File size : 70.9 MiB
Duration : 7mn 31s
Overall bit rate : 1 315 Kbps
Writing application : Lavf56.4.101

Video
ID : 1
Format : AVC
Format/Info : Advanced Video Codec
Format profile : High@L3.0
Format settings, CABAC : Yes
Format settings, ReFrames : 4 frames
Codec ID : avc1
Codec ID/Info : Advanced Video Coding
Duration : 7mn 31s
Bit rate : 1 246 Kbps
Width : 638 pixels
Height : 480 pixels
Display aspect ratio : 4:3
Frame rate mode : Constant
Frame rate : 29.970 fps
Color space : YUV
Chroma subsampling : 4:2:0
Bit depth : 8 bits
Scan type : Progressive
Bits/(Pixel*Frame) : 0.136
Stream size : 67.1 MiB (95%)
Writing library : x264 core 142 r2431 ac76440
Encoding settings : cabac=1 / ref=3 / deblock=1:0:0 / analyse=0×3:0×113 / me=hex / subme=7 / psy=1 / psy_rd=1.00:0.00 / mixed_ref=1 / me_range=16 / chroma_me=1 / trellis=1 / 8x8dct=1 / cqm=0 / deadzone=21,11 / fast_pskip=1 / chroma_qp_offset=-2 / threads=12 / lookahead_threads=2 / sliced_threads=0 / nr=0 / decimate=1 / interlaced=0 / bluray_compat=0 / constrained_intra=0 / bframes=3 / b_pyramid=2 / b_adapt=1 / b_bias=0 / direct=1 / weightb=1 / open_gop=0 / weightp=2 / keyint=250 / keyint_min=25 / scenecut=40 / intra_refresh=0 / rc_lookahead=40 / rc=crf / mbtree=1 / crf=23.0 / qcomp=0.60 / qpmin=0 / qpmax=69 / qpstep=4 / ip_ratio=1.40 / aq=1:1.00

Audio
ID : 2
Format : AAC
Format/Info : Advanced Audio Codec
Format profile : LC
Codec ID : 40
Duration : 7mn 31s
Bit rate mode : Constant
Bit rate : 64.2 Kbps
Channel(s) : 2 channels
Channel positions : Front: L R
Sampling rate : 22.05 KHz
Compression mode : Lossy
Stream size : 3.46 MiB (5%)

Download :

http://dfiles.ru/files/znn6uwevg
http://rapidgator.net/file/3a51abc9d3b61aacdf9f907cc1ebcd95/Angie_Savage_-_Shake_a_Tail_Feather.zip.html

Angie Savage – Sexy Valentine

 
General

Format : MPEG-4
Format profile : Base Media
Codec ID : isom
File size : 39.8 MiB
Duration : 5mn 50s
Overall bit rate : 951 Kbps
Writing application : Lavf56.4.101

Video
ID : 1
Format : AVC
Format/Info : Advanced Video Codec
Format profile : High@L3.0
Format settings, CABAC : Yes
Format settings, ReFrames : 4 frames
Codec ID : avc1
Codec ID/Info : Advanced Video Coding
Duration : 5mn 49s
Bit rate : 883 Kbps
Width : 640 pixels
Height : 480 pixels
Display aspect ratio : 4:3
Frame rate mode : Constant
Frame rate : 29.970 fps
Color space : YUV
Chroma subsampling : 4:2:0
Bit depth : 8 bits
Scan type : Progressive
Bits/(Pixel*Frame) : 0.096
Stream size : 36.8 MiB (93%)
Writing library : x264 core 142 r2431 ac76440
Encoding settings : cabac=1 / ref=3 / deblock=1:0:0 / analyse=0×3:0×113 / me=hex / subme=7 / psy=1 / psy_rd=1.00:0.00 / mixed_ref=1 / me_range=16 / chroma_me=1 / trellis=1 / 8x8dct=1 / cqm=0 / deadzone=21,11 / fast_pskip=1 / chroma_qp_offset=-2 / threads=12 / lookahead_threads=2 / sliced_threads=0 / nr=0 / decimate=1 / interlaced=0 / bluray_compat=0 / constrained_intra=0 / bframes=3 / b_pyramid=2 / b_adapt=1 / b_bias=0 / direct=1 / weightb=1 / open_gop=0 / weightp=2 / keyint=250 / keyint_min=25 / scenecut=40 / intra_refresh=0 / rc_lookahead=40 / rc=crf / mbtree=1 / crf=23.0 / qcomp=0.60 / qpmin=0 / qpmax=69 / qpstep=4 / ip_ratio=1.40 / aq=1:1.00
Language : English

Audio
ID : 2
Format : AAC
Format/Info : Advanced Audio Codec
Format profile : LC
Codec ID : 40
Duration : 5mn 50s
Bit rate mode : Constant
Bit rate : 64.2 Kbps
Channel(s) : 2 channels
Channel positions : Front: L R
Sampling rate : 22.05 KHz
Compression mode : Lossy
Stream size : 2.68 MiB (7%)
Language : English

Download :

http://rapidgator.net/file/cbe5cdbf78703b4bf87b6d255e2159a9/Angie_Savage_-_Sexy_Valentine.zip.html
http://dfiles.ru/files/fiefy1eon

Angelina Valentine – Hold on Tight!

 
General

Format : MPEG-4
Format profile : Base Media
Codec ID : isom
File size : 86.3 MiB
Duration : 8mn 18s
Overall bit rate : 1 453 Kbps
Writing application : Lavf56.4.101

Video
ID : 1
Format : AVC
Format/Info : Advanced Video Codec
Format profile : High@L3.1
Format settings, CABAC : Yes
Format settings, ReFrames : 4 frames
Codec ID : avc1
Codec ID/Info : Advanced Video Coding
Duration : 8mn 18s
Bit rate : 1 382 Kbps
Width : 720 pixels
Height : 540 pixels
Display aspect ratio : 4:3
Frame rate mode : Constant
Frame rate : 29.970 fps
Color space : YUV
Chroma subsampling : 4:2:0
Bit depth : 8 bits
Scan type : Progressive
Bits/(Pixel*Frame) : 0.119
Stream size : 82.1 MiB (95%)
Writing library : x264 core 142 r2431 ac76440
Encoding settings : cabac=1 / ref=3 / deblock=1:0:0 / analyse=0×3:0×113 / me=hex / subme=7 / psy=1 / psy_rd=1.00:0.00 / mixed_ref=1 / me_range=16 / chroma_me=1 / trellis=1 / 8x8dct=1 / cqm=0 / deadzone=21,11 / fast_pskip=1 / chroma_qp_offset=-2 / threads=12 / lookahead_threads=2 / sliced_threads=0 / nr=0 / decimate=1 / interlaced=0 / bluray_compat=0 / constrained_intra=0 / bframes=3 / b_pyramid=2 / b_adapt=1 / b_bias=0 / direct=1 / weightb=1 / open_gop=0 / weightp=2 / keyint=250 / keyint_min=25 / scenecut=40 / intra_refresh=0 / rc_lookahead=40 / rc=crf / mbtree=1 / crf=23.0 / qcomp=0.60 / qpmin=0 / qpmax=69 / qpstep=4 / ip_ratio=1.40 / aq=1:1.00
Language : English

Audio
ID : 2
Format : AAC
Format/Info : Advanced Audio Codec
Format profile : LC
Codec ID : 40
Duration : 8mn 18s
Bit rate mode : Constant
Bit rate : 64.2 Kbps
Channel(s) : 2 channels
Channel positions : Front: L R
Sampling rate : 22.05 KHz
Compression mode : Lossy
Stream size : 3.81 MiB (4%)
Language : English

Download :

http://dfiles.ru/files/3zum251u7
http://rapidgator.net/file/c9cacf552c6a7edbfbb0e9ae4dea9f47/Angelina_Valentine_-_Hold_on_Tight!.zip.html

Angelica Saint – In Russia, Angelica Rocks You!

 
General

Format : MPEG-4
Format profile : Base Media
Codec ID : isom
File size : 94.0 MiB
Duration : 10mn 44s
Overall bit rate : 1 223 Kbps
Writing application : Lavf56.4.101

Video
ID : 1
Format : AVC
Format/Info : Advanced Video Codec
Format profile : High@L3.0
Format settings, CABAC : Yes
Format settings, ReFrames : 4 frames
Codec ID : avc1
Codec ID/Info : Advanced Video Coding
Duration : 10mn 44s
Bit rate : 1 153 Kbps
Width : 638 pixels
Height : 480 pixels
Display aspect ratio : 4:3
Frame rate mode : Constant
Frame rate : 29.970 fps
Color space : YUV
Chroma subsampling : 4:2:0
Bit depth : 8 bits
Scan type : Progressive
Bits/(Pixel*Frame) : 0.126
Stream size : 88.6 MiB (94%)
Writing library : x264 core 142 r2431 ac76440
Encoding settings : cabac=1 / ref=3 / deblock=1:0:0 / analyse=0×3:0×113 / me=hex / subme=7 / psy=1 / psy_rd=1.00:0.00 / mixed_ref=1 / me_range=16 / chroma_me=1 / trellis=1 / 8x8dct=1 / cqm=0 / deadzone=21,11 / fast_pskip=1 / chroma_qp_offset=-2 / threads=12 / lookahead_threads=2 / sliced_threads=0 / nr=0 / decimate=1 / interlaced=0 / bluray_compat=0 / constrained_intra=0 / bframes=3 / b_pyramid=2 / b_adapt=1 / b_bias=0 / direct=1 / weightb=1 / open_gop=0 / weightp=2 / keyint=250 / keyint_min=25 / scenecut=40 / intra_refresh=0 / rc_lookahead=40 / rc=crf / mbtree=1 / crf=23.0 / qcomp=0.60 / qpmin=0 / qpmax=69 / qpstep=4 / ip_ratio=1.40 / aq=1:1.00

Audio
ID : 2
Format : AAC
Format/Info : Advanced Audio Codec
Format profile : LC
Codec ID : 40
Duration : 10mn 44s
Bit rate mode : Constant
Bit rate : 64.2 Kbps
Channel(s) : 2 channels
Channel positions : Front: L R
Sampling rate : 22.05 KHz
Compression mode : Lossy
Stream size : 4.93 MiB (5%)

Download :

http://dfiles.ru/files/j2mcprs9z
http://rapidgator.net/file/469d9bf1ea41fba3c90f4c7e28c54052/Angelica_Saint_-_In_Russia,_Angelica_Rocks_You!.zip.html

Angel Cassidy – Undress Uniform

 
General

Format : MPEG-4
Format profile : Base Media
Codec ID : isom
File size : 36.3 MiB
Duration : 6mn 22s
Overall bit rate : 796 Kbps
Movie name : Angel Cassidy’s Virtual Lap Dance
Performer : Danni Ashe
Writing application : Lavf56.4.101
Copyright : 2002 Danni’s Hard Drive. All Rights Reserved.

Video
ID : 1
Format : AVC
Format/Info : Advanced Video Codec
Format profile : High@L3.0
Format settings, CABAC : Yes
Format settings, ReFrames : 4 frames
Codec ID : avc1
Codec ID/Info : Advanced Video Coding
Duration : 6mn 21s
Bit rate : 727 Kbps
Width : 480 pixels
Height : 360 pixels
Display aspect ratio : 4:3
Frame rate mode : Constant
Frame rate : 29.970 fps
Color space : YUV
Chroma subsampling : 4:2:0
Bit depth : 8 bits
Scan type : Progressive
Bits/(Pixel*Frame) : 0.140
Stream size : 33.1 MiB (91%)
Writing library : x264 core 142 r2431 ac76440
Encoding settings : cabac=1 / ref=3 / deblock=1:0:0 / analyse=0×3:0×113 / me=hex / subme=7 / psy=1 / psy_rd=1.00:0.00 / mixed_ref=1 / me_range=16 / chroma_me=1 / trellis=1 / 8x8dct=1 / cqm=0 / deadzone=21,11 / fast_pskip=1 / chroma_qp_offset=-2 / threads=12 / lookahead_threads=2 / sliced_threads=0 / nr=0 / decimate=1 / interlaced=0 / bluray_compat=0 / constrained_intra=0 / bframes=3 / b_pyramid=2 / b_adapt=1 / b_bias=0 / direct=1 / weightb=1 / open_gop=0 / weightp=2 / keyint=250 / keyint_min=25 / scenecut=40 / intra_refresh=0 / rc_lookahead=40 / rc=crf / mbtree=1 / crf=23.0 / qcomp=0.60 / qpmin=0 / qpmax=69 / qpstep=4 / ip_ratio=1.40 / aq=1:1.00
Language : English

Audio
ID : 2
Format : AAC
Format/Info : Advanced Audio Codec
Format profile : LC
Codec ID : 40
Duration : 6mn 22s
Bit rate mode : Constant
Bit rate : 64.2 Kbps
Channel(s) : 2 channels
Channel positions : Front: L R
Sampling rate : 22.05 KHz
Compression mode : Lossy
Stream size : 2.92 MiB (8%)
Language : English

Download :

http://rapidgator.net/file/970b63e9b59dbf6b707529bff5ed4c5c/Angel_Cassidy_-_Undress_Uniform.zip.html
http://dfiles.ru/files/w68j96y6t

Angel Cassidy – Dirty Laundry

 
General

Format : MPEG-4
Format profile : Base Media
Codec ID : isom
File size : 47.8 MiB
Duration : 7mn 12s
Overall bit rate : 927 Kbps
Movie name : Angel Cassidy’s Virtual Lap Dance
Performer : Danni Ashe
Writing application : Lavf56.4.101
Copyright : 2005 Danni’s Hard Drive. All Rights Reserved.
Comment : Virtual Lap Dance

Video
ID : 1
Format : AVC
Format/Info : Advanced Video Codec
Format profile : High@L3.0
Format settings, CABAC : Yes
Format settings, ReFrames : 4 frames
Codec ID : avc1
Codec ID/Info : Advanced Video Coding
Duration : 7mn 11s
Bit rate : 859 Kbps
Width : 480 pixels
Height : 360 pixels
Display aspect ratio : 4:3
Frame rate mode : Constant
Frame rate : 30.000 fps
Color space : YUV
Chroma subsampling : 4:2:0
Bit depth : 8 bits
Scan type : Progressive
Bits/(Pixel*Frame) : 0.166
Stream size : 44.2 MiB (92%)
Writing library : x264 core 142 r2431 ac76440
Encoding settings : cabac=1 / ref=3 / deblock=1:0:0 / analyse=0×3:0×113 / me=hex / subme=7 / psy=1 / psy_rd=1.00:0.00 / mixed_ref=1 / me_range=16 / chroma_me=1 / trellis=1 / 8x8dct=1 / cqm=0 / deadzone=21,11 / fast_pskip=1 / chroma_qp_offset=-2 / threads=12 / lookahead_threads=2 / sliced_threads=0 / nr=0 / decimate=1 / interlaced=0 / bluray_compat=0 / constrained_intra=0 / bframes=3 / b_pyramid=2 / b_adapt=1 / b_bias=0 / direct=1 / weightb=1 / open_gop=0 / weightp=2 / keyint=250 / keyint_min=25 / scenecut=40 / intra_refresh=0 / rc_lookahead=40 / rc=crf / mbtree=1 / crf=23.0 / qcomp=0.60 / qpmin=0 / qpmax=69 / qpstep=4 / ip_ratio=1.40 / aq=1:1.00
Language : English

Audio
ID : 2
Format : AAC
Format/Info : Advanced Audio Codec
Format profile : LC
Codec ID : 40
Duration : 7mn 12s
Bit rate mode : Constant
Bit rate : 64.2 Kbps
Channel(s) : 2 channels
Channel positions : Front: L R
Sampling rate : 22.05 KHz
Compression mode : Lossy
Stream size : 3.31 MiB (7%)
Language : English

Download :

http://dfiles.ru/files/uy6gofzu9
http://rapidgator.net/file/d196975843c4f4f6b5a58fe3102b93ea/Angel_Cassidy_-_Dirty_Laundry.zip.html

Andie Valentino – Virtual Lap Dance

 
General

Format : MPEG-4
Format profile : Base Media
Codec ID : isom
File size : 49.3 MiB
Duration : 8mn 1s
Overall bit rate : 859 Kbps
Writing application : Lavf56.4.101

Video
ID : 1
Format : AVC
Format/Info : Advanced Video Codec
Format profile : High@L3.0
Format settings, CABAC : Yes
Format settings, ReFrames : 4 frames
Codec ID : avc1
Codec ID/Info : Advanced Video Coding
Duration : 8mn 0s
Bit rate : 790 Kbps
Width : 640 pixels
Height : 480 pixels
Display aspect ratio : 4:3
Frame rate mode : Constant
Frame rate : 29.970 fps
Color space : YUV
Chroma subsampling : 4:2:0
Bit depth : 8 bits
Scan type : Progressive
Bits/(Pixel*Frame) : 0.086
Stream size : 45.3 MiB (92%)
Writing library : x264 core 142 r2431 ac76440
Encoding settings : cabac=1 / ref=3 / deblock=1:0:0 / analyse=0×3:0×113 / me=hex / subme=7 / psy=1 / psy_rd=1.00:0.00 / mixed_ref=1 / me_range=16 / chroma_me=1 / trellis=1 / 8x8dct=1 / cqm=0 / deadzone=21,11 / fast_pskip=1 / chroma_qp_offset=-2 / threads=12 / lookahead_threads=2 / sliced_threads=0 / nr=0 / decimate=1 / interlaced=0 / bluray_compat=0 / constrained_intra=0 / bframes=3 / b_pyramid=2 / b_adapt=1 / b_bias=0 / direct=1 / weightb=1 / open_gop=0 / weightp=2 / keyint=250 / keyint_min=25 / scenecut=40 / intra_refresh=0 / rc_lookahead=40 / rc=crf / mbtree=1 / crf=23.0 / qcomp=0.60 / qpmin=0 / qpmax=69 / qpstep=4 / ip_ratio=1.40 / aq=1:1.00
Language : English

Audio
ID : 2
Format : AAC
Format/Info : Advanced Audio Codec
Format profile : LC
Codec ID : 40
Duration : 8mn 1s
Bit rate mode : Constant
Bit rate : 64.2 Kbps
Channel(s) : 2 channels
Channel positions : Front: L R
Sampling rate : 22.05 KHz
Compression mode : Lossy
Stream size : 3.68 MiB (7%)
Language : English

Download :

http://dfiles.ru/files/icsaafcdb
http://rapidgator.net/file/364148cce70c475010540b5486c26387/Andie_Valentino_-_Virtual_Lap_Dance.zip.html

Andie Valentino – Body of Art

 
General

Format : MPEG-4
Format profile : Base Media
Codec ID : isom
File size : 44.4 MiB
Duration : 7mn 10s
Overall bit rate : 866 Kbps
Writing application : Lavf56.4.101

Video
ID : 1
Format : AVC
Format/Info : Advanced Video Codec
Format profile : High@L3.0
Format settings, CABAC : Yes
Format settings, ReFrames : 4 frames
Codec ID : avc1
Codec ID/Info : Advanced Video Coding
Duration : 7mn 10s
Bit rate : 796 Kbps
Width : 640 pixels
Height : 428 pixels
Display aspect ratio : 3:2
Frame rate mode : Constant
Frame rate : 29.970 fps
Color space : YUV
Chroma subsampling : 4:2:0
Bit depth : 8 bits
Scan type : Progressive
Bits/(Pixel*Frame) : 0.097
Stream size : 40.9 MiB (92%)
Writing library : x264 core 142 r2431 ac76440
Encoding settings : cabac=1 / ref=3 / deblock=1:0:0 / analyse=0×3:0×113 / me=hex / subme=7 / psy=1 / psy_rd=1.00:0.00 / mixed_ref=1 / me_range=16 / chroma_me=1 / trellis=1 / 8x8dct=1 / cqm=0 / deadzone=21,11 / fast_pskip=1 / chroma_qp_offset=-2 / threads=12 / lookahead_threads=2 / sliced_threads=0 / nr=0 / decimate=1 / interlaced=0 / bluray_compat=0 / constrained_intra=0 / bframes=3 / b_pyramid=2 / b_adapt=1 / b_bias=0 / direct=1 / weightb=1 / open_gop=0 / weightp=2 / keyint=250 / keyint_min=25 / scenecut=40 / intra_refresh=0 / rc_lookahead=40 / rc=crf / mbtree=1 / crf=23.0 / qcomp=0.60 / qpmin=0 / qpmax=69 / qpstep=4 / ip_ratio=1.40 / aq=1:1.00
Language : English

Audio
ID : 2
Format : AAC
Format/Info : Advanced Audio Codec
Format profile : LC
Codec ID : 40
Duration : 7mn 10s
Bit rate mode : Constant
Bit rate : 64.2 Kbps
Channel(s) : 2 channels
Channel positions : Front: L R
Sampling rate : 22.05 KHz
Compression mode : Lossy
Stream size : 3.29 MiB (7%)
Language : English

Download :

http://dfiles.ru/files/llwpr3v29
http://rapidgator.net/file/301bb05c55ab63d35c50dcd840e79b85/Andie_Valentino_-_Body_of_Art.zip.html

Andi Anderson – Sin is In

 
General

Format : MPEG-4
Format profile : Base Media
Codec ID : isom
File size : 80.8 MiB
Duration : 7mn 38s
Overall bit rate : 1 479 Kbps
Writing application : Lavf56.4.101

Video
ID : 1
Format : AVC
Format/Info : Advanced Video Codec
Format profile : High@L3.0
Format settings, CABAC : Yes
Format settings, ReFrames : 4 frames
Codec ID : avc1
Codec ID/Info : Advanced Video Coding
Duration : 7mn 38s
Bit rate : 1 409 Kbps
Width : 640 pixels
Height : 480 pixels
Display aspect ratio : 4:3
Frame rate mode : Constant
Frame rate : 29.970 fps
Color space : YUV
Chroma subsampling : 4:2:0
Bit depth : 8 bits
Scan type : Progressive
Bits/(Pixel*Frame) : 0.153
Stream size : 77.0 MiB (95%)
Writing library : x264 core 142 r2431 ac76440
Encoding settings : cabac=1 / ref=3 / deblock=1:0:0 / analyse=0×3:0×113 / me=hex / subme=7 / psy=1 / psy_rd=1.00:0.00 / mixed_ref=1 / me_range=16 / chroma_me=1 / trellis=1 / 8x8dct=1 / cqm=0 / deadzone=21,11 / fast_pskip=1 / chroma_qp_offset=-2 / threads=12 / lookahead_threads=2 / sliced_threads=0 / nr=0 / decimate=1 / interlaced=0 / bluray_compat=0 / constrained_intra=0 / bframes=3 / b_pyramid=2 / b_adapt=1 / b_bias=0 / direct=1 / weightb=1 / open_gop=0 / weightp=2 / keyint=250 / keyint_min=25 / scenecut=40 / intra_refresh=0 / rc_lookahead=40 / rc=crf / mbtree=1 / crf=23.0 / qcomp=0.60 / qpmin=0 / qpmax=69 / qpstep=4 / ip_ratio=1.40 / aq=1:1.00

Audio
ID : 2
Format : AAC
Format/Info : Advanced Audio Codec
Format profile : LC
Codec ID : 40
Duration : 7mn 38s
Bit rate mode : Constant
Bit rate : 64.2 Kbps
Channel(s) : 2 channels
Channel positions : Front: L R
Sampling rate : 22.05 KHz
Compression mode : Lossy
Stream size : 3.50 MiB (4%)

Download :

http://dfiles.ru/files/qlbuj58ho
http://rapidgator.net/file/cbc478cfa5987b42959b1fa830ff4890/Andi_Anderson_-_Sin_is_In.zip.html