Daily Archives: November 5, 2014

Young Rosey Twerks-3620947

 
General

Format : MPEG-4
Format profile : Base Media
Codec ID : isom
File size : 6.57 MiB
Duration : 25s 77ms
Overall bit rate mode : Variable
Overall bit rate : 2 199 Kbps
Recorded date : 2014-04-18T03:42:04-1000
Writing application : Lavf53.5.0

Video
ID : 1
Format : AVC
Format/Info : Advanced Video Codec
Format profile : Baseline@L3.1
Format settings, CABAC : No
Format settings, ReFrames : 2 frames
Codec ID : avc1
Codec ID/Info : Advanced Video Coding
Duration : 25s 41ms
Bit rate : 2 048 Kbps
Width : 1 280 pixels
Height : 720 pixels
Display aspect ratio : 16:9
Frame rate mode : Constant
Frame rate : 24.000 fps
Color space : YUV
Chroma subsampling : 4:2:0
Bit depth : 8 bits
Scan type : Progressive
Bits/(Pixel*Frame) : 0.093
Stream size : 6.13 MiB (93%)
Writing library : x264 core 119
Encoding settings : cabac=0 / ref=2 / deblock=1:0:0 / analyse=0×1:0×111 / me=hex / subme=6 / psy=1 / psy_rd=1.00:0.00 / mixed_ref=0 / me_range=16 / chroma_me=1 / trellis=0 / 8x8dct=0 / cqm=0 / deadzone=21,11 / fast_pskip=1 / chroma_qp_offset=-2 / threads=1 / sliced_threads=0 / nr=0 / decimate=1 / interlaced=0 / bluray_compat=0 / constrained_intra=0 / bframes=0 / weightp=0 / keyint=250 / keyint_min=25 / scenecut=40 / intra_refresh=0 / rc_lookahead=40 / rc=2pass / mbtree=1 / bitrate=2048 / ratetol=1.0 / qcomp=0.50 / qpmin=10 / qpmax=51 / qpstep=4 / cplxblur=20.0 / qblur=0.5 / ip_ratio=1.41 / aq=1:1.00
Tagged date : UTC 2014-10-11 13:44:48

Audio
ID : 2
Format : AAC
Format/Info : Advanced Audio Codec
Format profile : LC
Codec ID : 40
Duration : 25s 77ms
Bit rate mode : Variable
Bit rate : 44.1 Kbps
Maximum bit rate : 56.0 Kbps
Channel(s) : 2 channels
Channel positions : Front: L R
Sampling rate : 44.1 KHz
Compression mode : Lossy
Stream size : 135 KiB (2%)
Tagged date : UTC 2014-10-11 13:44:48

Download :

http://rapidgator.net/file/e84cd98c42d59fab340df7517bee014d/Young_Rosey_Twerks-3620947.zip.html
http://dfiles.ru/files/a91ezxbpo

Wwe diva paige twerking her ass on a lucky guys cock-3668239

 
General

Format : MPEG-4
Format profile : Base Media
Codec ID : isom
File size : 482 KiB
Duration : 7s 105ms
Overall bit rate mode : Variable
Overall bit rate : 556 Kbps
Writing application : Lavf53.5.0

Video
ID : 1
Format : AVC
Format/Info : Advanced Video Codec
Format profile : Baseline@L3.1
Format settings, CABAC : No
Format settings, ReFrames : 2 frames
Codec ID : avc1
Codec ID/Info : Advanced Video Coding
Duration : 7s 66ms
Bit rate : 512 Kbps
Width : 320 pixels
Height : 240 pixels
Display aspect ratio : 4:3
Frame rate mode : Constant
Frame rate : 15.000 fps
Color space : YUV
Chroma subsampling : 4:2:0
Bit depth : 8 bits
Scan type : Progressive
Bits/(Pixel*Frame) : 0.444
Stream size : 447 KiB (93%)
Writing library : x264 core 125
Encoding settings : cabac=0 / ref=2 / deblock=1:0:0 / analyse=0×1:0×111 / me=hex / subme=6 / psy=1 / psy_rd=1.00:0.00 / mixed_ref=0 / me_range=16 / chroma_me=1 / trellis=0 / 8x8dct=0 / cqm=0 / deadzone=21,11 / fast_pskip=1 / chroma_qp_offset=-2 / threads=1 / lookahead_threads=1 / sliced_threads=0 / nr=0 / decimate=1 / interlaced=0 / bluray_compat=0 / constrained_intra=0 / bframes=0 / weightp=0 / keyint=250 / keyint_min=25 / scenecut=40 / intra_refresh=0 / rc_lookahead=40 / rc=2pass / mbtree=1 / bitrate=512 / ratetol=1.0 / qcomp=0.50 / qpmin=10 / qpmax=51 / qpstep=4 / cplxblur=20.0 / qblur=0.5 / ip_ratio=1.41 / aq=1:1.00
Tagged date : UTC 2014-10-22 13:01:02

Audio
ID : 2
Format : AAC
Format/Info : Advanced Audio Codec
Format profile : LC
Codec ID : 40
Duration : 7s 105ms
Bit rate mode : Variable
Bit rate : 3 119 bps
Maximum bit rate : 56.0 Kbps
Channel(s) : 2 channels
Channel positions : Front: L R
Sampling rate : 44.1 KHz
Compression mode : Lossy
Stream size : 2.71 KiB (1%)
Tagged date : UTC 2014-10-22 13:01:02

Download :

http://dfiles.ru/files/n0zoeaawu
http://rapidgator.net/file/9e6a3be70a5bbe00899dd311b8030e42/Wwe_diva_paige_twerking_her_ass_on_a_lucky_guys_cock-3668239.zip.html

Whooty twerking ass-3678267

 
General

Format : MPEG-4
Format profile : Base Media
Codec ID : isom
File size : 10.1 MiB
Duration : 2mn 17s
Overall bit rate : 619 Kbps
Writing application : Lavf53.5.0

Video
ID : 1
Format : AVC
Format/Info : Advanced Video Codec
Format profile : Baseline@L3.1
Format settings, CABAC : No
Format settings, ReFrames : 2 frames
Codec ID : avc1
Codec ID/Info : Advanced Video Coding
Duration : 2mn 16s
Bit rate : 512 Kbps
Width : 426 pixels
Height : 240 pixels
Display aspect ratio : 16:9
Frame rate mode : Constant
Frame rate : 29.970 fps
Color space : YUV
Chroma subsampling : 4:2:0
Bit depth : 8 bits
Scan type : Progressive
Bits/(Pixel*Frame) : 0.167
Stream size : 8.35 MiB (83%)
Writing library : x264 core 125
Encoding settings : cabac=0 / ref=2 / deblock=1:0:0 / analyse=0×1:0×111 / me=hex / subme=6 / psy=1 / psy_rd=1.00:0.00 / mixed_ref=0 / me_range=16 / chroma_me=1 / trellis=0 / 8x8dct=0 / cqm=0 / deadzone=21,11 / fast_pskip=1 / chroma_qp_offset=-2 / threads=1 / lookahead_threads=1 / sliced_threads=0 / nr=0 / decimate=1 / interlaced=0 / bluray_compat=0 / constrained_intra=0 / bframes=0 / weightp=0 / keyint=250 / keyint_min=25 / scenecut=40 / intra_refresh=0 / rc_lookahead=40 / rc=2pass / mbtree=1 / bitrate=512 / ratetol=1.0 / qcomp=0.50 / qpmin=10 / qpmax=51 / qpstep=4 / cplxblur=20.0 / qblur=0.5 / ip_ratio=1.41 / aq=1:1.00
Tagged date : UTC 2014-10-24 20:25:28

Audio
ID : 2
Format : AAC
Format/Info : Advanced Audio Codec
Format profile : LC
Codec ID : 40
Duration : 2mn 17s
Bit rate mode : Constant
Bit rate : 64.2 Kbps
Channel(s) : 2 channels
Channel positions : Front: L R
Sampling rate : 48.0 KHz
Compression mode : Lossy
Stream size : 1.05 MiB (10%)
Tagged date : UTC 2014-10-24 20:25:28

Download :

http://rapidgator.net/file/e9ffb06d56bd5cdea4aa38e1a85dda4a/Whooty_twerking_ass-3678267.zip.html
http://dfiles.ru/files/er00sc6jw

Whooty twerking ass 5-3700910

 
General

Format : MPEG-4
Format profile : Base Media
Codec ID : isom
File size : 10.2 MiB
Duration : 2mn 18s
Overall bit rate : 618 Kbps
Writing application : Lavf53.5.0

Video
ID : 1
Format : AVC
Format/Info : Advanced Video Codec
Format profile : Baseline@L3.1
Format settings, CABAC : No
Format settings, ReFrames : 2 frames
Codec ID : avc1
Codec ID/Info : Advanced Video Coding
Duration : 2mn 18s
Bit rate : 512 Kbps
Width : 320 pixels
Height : 240 pixels
Display aspect ratio : 4:3
Frame rate mode : Constant
Frame rate : 30.000 fps
Color space : YUV
Chroma subsampling : 4:2:0
Bit depth : 8 bits
Scan type : Progressive
Bits/(Pixel*Frame) : 0.222
Stream size : 8.43 MiB (83%)
Writing library : x264 core 125
Encoding settings : cabac=0 / ref=2 / deblock=1:0:0 / analyse=0×1:0×111 / me=hex / subme=6 / psy=1 / psy_rd=1.00:0.00 / mixed_ref=0 / me_range=16 / chroma_me=1 / trellis=0 / 8x8dct=0 / cqm=0 / deadzone=21,11 / fast_pskip=1 / chroma_qp_offset=-2 / threads=1 / lookahead_threads=1 / sliced_threads=0 / nr=0 / decimate=1 / interlaced=0 / bluray_compat=0 / constrained_intra=0 / bframes=0 / weightp=0 / keyint=250 / keyint_min=25 / scenecut=40 / intra_refresh=0 / rc_lookahead=40 / rc=2pass / mbtree=1 / bitrate=512 / ratetol=1.0 / qcomp=0.50 / qpmin=10 / qpmax=51 / qpstep=4 / cplxblur=20.0 / qblur=0.5 / ip_ratio=1.41 / aq=1:1.00
Language : English
Tagged date : UTC 2014-10-29 05:23:13

Audio
ID : 2
Format : AAC
Format/Info : Advanced Audio Codec
Format profile : LC
Codec ID : 40
Duration : 2mn 18s
Bit rate mode : Constant
Bit rate : 64.2 Kbps
Channel(s) : 2 channels
Channel positions : Front: L R
Sampling rate : 48.0 KHz
Compression mode : Lossy
Stream size : 1.06 MiB (10%)
Language : English
Tagged date : UTC 2014-10-29 05:23:13

Download :

http://rapidgator.net/file/6900ce371b35517c08ca10ae952c4845/Whooty_twerking_ass_5-3700910.zip.html
http://dfiles.ru/files/qahwtf5li

White Girl TWERK – Trippy-3507967

 
General

Format : MPEG-4
Format profile : Base Media
Codec ID : isom
File size : 10.0 MiB
Duration : 2mn 20s
Overall bit rate mode : Variable
Overall bit rate : 600 Kbps
Writing application : Lavf53.5.0

Video
ID : 1
Format : AVC
Format/Info : Advanced Video Codec
Format profile : Baseline@L3.1
Format settings, CABAC : No
Format settings, ReFrames : 2 frames
Codec ID : avc1
Codec ID/Info : Advanced Video Coding
Duration : 2mn 20s
Bit rate : 512 Kbps
Width : 136 pixels
Height : 240 pixels
Display aspect ratio : 0.567
Frame rate mode : Constant
Frame rate : 30.000 fps
Color space : YUV
Chroma subsampling : 4:2:0
Bit depth : 8 bits
Scan type : Progressive
Bits/(Pixel*Frame) : 0.523
Stream size : 8.54 MiB (85%)
Writing library : x264 core 119
Encoding settings : cabac=0 / ref=2 / deblock=1:0:0 / analyse=0×1:0×111 / me=hex / subme=6 / psy=1 / psy_rd=1.00:0.00 / mixed_ref=0 / me_range=16 / chroma_me=1 / trellis=0 / 8x8dct=0 / cqm=0 / deadzone=21,11 / fast_pskip=1 / chroma_qp_offset=-2 / threads=1 / sliced_threads=0 / nr=0 / decimate=1 / interlaced=0 / bluray_compat=0 / constrained_intra=0 / bframes=0 / weightp=0 / keyint=250 / keyint_min=25 / scenecut=40 / intra_refresh=0 / rc_lookahead=40 / rc=2pass / mbtree=1 / bitrate=512 / ratetol=1.0 / qcomp=0.50 / qpmin=10 / qpmax=51 / qpstep=4 / cplxblur=20.0 / qblur=0.5 / ip_ratio=1.41 / aq=1:1.00
Tagged date : UTC 2014-09-12 12:20:52

Audio
ID : 2
Format : AAC
Format/Info : Advanced Audio Codec
Format profile : LC
Codec ID : 40
Duration : 2mn 20s
Bit rate mode : Variable
Bit rate : 48.0 Kbps
Maximum bit rate : 56.0 Kbps
Channel(s) : 2 channels
Channel positions : Front: L R
Sampling rate : 44.1 KHz
Compression mode : Lossy
Stream size : 821 KiB (8%)
Tagged date : UTC 2014-09-12 12:20:52

Download :

http://dfiles.ru/files/e2et6ex0u
http://rapidgator.net/file/ea679efec8983ae87224ea332a4919b2/White_Girl_TWERK_-_Trippy-3507967.zip.html

White Girl TWERK – She Thick-3690213

 
General

Format : MPEG-4
Format profile : Base Media
Codec ID : isom
File size : 15.9 MiB
Duration : 3mn 38s
Overall bit rate mode : Variable
Overall bit rate : 609 Kbps
Writing application : Lavf53.5.0

Video
ID : 1
Format : AVC
Format/Info : Advanced Video Codec
Format profile : Baseline@L3.1
Format settings, CABAC : No
Format settings, ReFrames : 2 frames
Codec ID : avc1
Codec ID/Info : Advanced Video Coding
Duration : 3mn 38s
Bit rate : 512 Kbps
Width : 320 pixels
Height : 240 pixels
Display aspect ratio : 4:3
Frame rate mode : Constant
Frame rate : 29.970 fps
Color space : YUV
Chroma subsampling : 4:2:0
Bit depth : 8 bits
Scan type : Progressive
Bits/(Pixel*Frame) : 0.222
Stream size : 13.4 MiB (84%)
Writing library : x264 core 125
Encoding settings : cabac=0 / ref=2 / deblock=1:0:0 / analyse=0×1:0×111 / me=hex / subme=6 / psy=1 / psy_rd=1.00:0.00 / mixed_ref=0 / me_range=16 / chroma_me=1 / trellis=0 / 8x8dct=0 / cqm=0 / deadzone=21,11 / fast_pskip=1 / chroma_qp_offset=-2 / threads=1 / lookahead_threads=1 / sliced_threads=0 / nr=0 / decimate=1 / interlaced=0 / bluray_compat=0 / constrained_intra=0 / bframes=0 / weightp=0 / keyint=250 / keyint_min=25 / scenecut=40 / intra_refresh=0 / rc_lookahead=40 / rc=2pass / mbtree=1 / bitrate=512 / ratetol=1.0 / qcomp=0.50 / qpmin=10 / qpmax=51 / qpstep=4 / cplxblur=20.0 / qblur=0.5 / ip_ratio=1.41 / aq=1:1.00
Tagged date : UTC 2014-10-26 23:41:21

Audio
ID : 2
Format : AAC
Format/Info : Advanced Audio Codec
Format profile : LC
Codec ID : 40
Duration : 3mn 38s
Bit rate mode : Variable
Bit rate : 52.8 Kbps
Maximum bit rate : 56.0 Kbps
Channel(s) : 2 channels
Channel positions : Front: L R
Sampling rate : 48.0 KHz
Compression mode : Lossy
Stream size : 1.38 MiB (9%)
Tagged date : UTC 2014-10-26 23:41:21

Download :

http://dfiles.ru/files/i4bydy62q
http://rapidgator.net/file/48b1a5067cc9cda576671a3cf5be4210/White_Girl_TWERK_-_She_Thick-3690213.zip.html

Werk Me Twerking Music Compilation-3671177

 
General

Format : MPEG-4
Format profile : Base Media
Codec ID : isom
File size : 15.7 MiB
Duration : 3mn 41s
Overall bit rate mode : Variable
Overall bit rate : 594 Kbps
Writing application : Lavf53.5.0

Video
ID : 1
Format : AVC
Format/Info : Advanced Video Codec
Format profile : Baseline@L3.1
Format settings, CABAC : No
Format settings, ReFrames : 2 frames
Codec ID : avc1
Codec ID/Info : Advanced Video Coding
Duration : 3mn 41s
Bit rate : 512 Kbps
Width : 426 pixels
Height : 240 pixels
Display aspect ratio : 16:9
Frame rate mode : Constant
Frame rate : 25.000 fps
Color space : YUV
Chroma subsampling : 4:2:0
Bit depth : 8 bits
Scan type : Progressive
Bits/(Pixel*Frame) : 0.200
Stream size : 13.5 MiB (86%)
Writing library : x264 core 125
Encoding settings : cabac=0 / ref=2 / deblock=1:0:0 / analyse=0×1:0×111 / me=hex / subme=6 / psy=1 / psy_rd=1.00:0.00 / mixed_ref=0 / me_range=16 / chroma_me=1 / trellis=0 / 8x8dct=0 / cqm=0 / deadzone=21,11 / fast_pskip=1 / chroma_qp_offset=-2 / threads=1 / lookahead_threads=1 / sliced_threads=0 / nr=0 / decimate=1 / interlaced=0 / bluray_compat=0 / constrained_intra=0 / bframes=0 / weightp=0 / keyint=250 / keyint_min=25 / scenecut=40 / intra_refresh=0 / rc_lookahead=40 / rc=2pass / mbtree=1 / bitrate=512 / ratetol=1.0 / qcomp=0.50 / qpmin=10 / qpmax=51 / qpstep=4 / cplxblur=20.0 / qblur=0.5 / ip_ratio=1.41 / aq=1:1.00
Tagged date : UTC 2014-10-23 08:05:46

Audio
ID : 2
Format : AAC
Format/Info : Advanced Audio Codec
Format profile : LC
Codec ID : 40
Duration : 3mn 41s
Bit rate mode : Variable
Bit rate : 48.0 Kbps
Maximum bit rate : 56.0 Kbps
Channel(s) : 2 channels
Channel positions : Front: L R
Sampling rate : 22.05 KHz
Compression mode : Lossy
Stream size : 1.30 MiB (8%)
Tagged date : UTC 2014-10-23 08:05:46

Download :

http://rapidgator.net/file/5247cb76cab99fe8c214bc9b3c781757/Werk_Me_Twerking_Music_Compilation-3671177.zip.html
http://dfiles.ru/files/k17nwnrwe

Watch How Wet She Gets Twerking!-3008846

 
General

Format : MPEG-4
Format profile : Base Media
Codec ID : isom
File size : 18.5 MiB
Duration : 4mn 15s
Overall bit rate : 607 Kbps
Writing application : Lavf53.5.0

Video
ID : 1
Format : AVC
Format/Info : Advanced Video Codec
Format profile : High@L2.0
Format settings, CABAC : Yes
Format settings, ReFrames : 4 frames
Codec ID : avc1
Codec ID/Info : Advanced Video Coding
Duration : 4mn 15s
Bit rate : 512 Kbps
Width : 134 pixels
Height : 238 pixels
Display aspect ratio : 0.563
Frame rate mode : Constant
Frame rate : 15.000 fps
Color space : YUV
Chroma subsampling : 4:2:0
Bit depth : 8 bits
Scan type : Progressive
Bits/(Pixel*Frame) : 1.070
Stream size : 15.6 MiB (85%)
Writing library : x264 core 119
Encoding settings : cabac=1 / ref=2 / deblock=1:0:0 / analyse=0×3:0×113 / me=hex / subme=6 / psy=1 / psy_rd=1.00:0.00 / mixed_ref=0 / me_range=16 / chroma_me=1 / trellis=0 / 8x8dct=1 / cqm=0 / deadzone=21,11 / fast_pskip=1 / chroma_qp_offset=-2 / threads=1 / sliced_threads=0 / nr=0 / decimate=1 / interlaced=0 / bluray_compat=0 / constrained_intra=0 / bframes=16 / b_pyramid=2 / b_adapt=0 / b_bias=0 / direct=2 / weightb=1 / open_gop=0 / weightp=2 / keyint=250 / keyint_min=25 / scenecut=40 / intra_refresh=0 / rc_lookahead=40 / rc=2pass / mbtree=1 / bitrate=512 / ratetol=1.0 / qcomp=0.50 / qpmin=10 / qpmax=51 / qpstep=4 / cplxblur=20.0 / qblur=0.5 / ip_ratio=1.41 / aq=1:1.00
Tagged date : UTC 2014-04-30 07:13:34

Audio
ID : 2
Format : AAC
Format/Info : Advanced Audio Codec
Format profile : LC
Codec ID : 40
Duration : 4mn 15s
Bit rate mode : Constant
Bit rate : 59.0 Kbps
Channel(s) : 2 channels
Channel positions : Front: L R
Sampling rate : 44.1 KHz
Compression mode : Lossy
Stream size : 1.79 MiB (10%)
Tagged date : UTC 2014-04-30 07:13:34

Download :

http://rapidgator.net/file/562eb0a41cf330703c0f05665fb0c454/Watch_How_Wet_She_Gets_Twerking!-3008846.zip.html
http://dfiles.ru/files/efp01tdb4

Vendetta Twerking-3562856

 
General

Format : MPEG-4
Format profile : Base Media
Codec ID : isom
File size : 7.02 MiB
Duration : 1mn 35s
Overall bit rate : 619 Kbps
Writing application : Lavf53.5.0

Video
ID : 1
Format : AVC
Format/Info : Advanced Video Codec
Format profile : Baseline@L3.1
Format settings, CABAC : No
Format settings, ReFrames : 2 frames
Codec ID : avc1
Codec ID/Info : Advanced Video Coding
Duration : 1mn 35s
Bit rate : 512 Kbps
Width : 426 pixels
Height : 240 pixels
Display aspect ratio : 16:9
Frame rate mode : Variable
Frame rate : 29.939 fps
Minimum frame rate : 14.985 fps
Maximum frame rate : 29.970 fps
Color space : YUV
Chroma subsampling : 4:2:0
Bit depth : 8 bits
Scan type : Progressive
Bits/(Pixel*Frame) : 0.167
Stream size : 5.81 MiB (83%)
Writing library : x264 core 119
Encoding settings : cabac=0 / ref=2 / deblock=1:0:0 / analyse=0×1:0×111 / me=hex / subme=6 / psy=1 / psy_rd=1.00:0.00 / mixed_ref=0 / me_range=16 / chroma_me=1 / trellis=0 / 8x8dct=0 / cqm=0 / deadzone=21,11 / fast_pskip=1 / chroma_qp_offset=-2 / threads=1 / sliced_threads=0 / nr=0 / decimate=1 / interlaced=0 / bluray_compat=0 / constrained_intra=0 / bframes=0 / weightp=0 / keyint=250 / keyint_min=25 / scenecut=40 / intra_refresh=0 / rc_lookahead=40 / rc=2pass / mbtree=1 / bitrate=512 / ratetol=1.0 / qcomp=0.50 / qpmin=10 / qpmax=51 / qpstep=4 / cplxblur=20.0 / qblur=0.5 / ip_ratio=1.41 / aq=1:1.00
Tagged date : UTC 2014-09-24 21:52:42

Audio
ID : 2
Format : AAC
Format/Info : Advanced Audio Codec
Format profile : LC
Codec ID : 40
Duration : 1mn 35s
Bit rate mode : Constant
Bit rate : 64.1 Kbps
Channel(s) : 2 channels
Channel positions : Front: L R
Sampling rate : 48.0 KHz
Compression mode : Lossy
Stream size : 745 KiB (10%)
Tagged date : UTC 2014-09-24 21:52:42

Download :

http://rapidgator.net/file/2264ed52d25988e68b9d48c657710a7c/Vendetta_Twerking-3562856.zip.html
http://dfiles.ru/files/k26k3lsxh

Twerking social media slut with huge juicy bubble butt-3469619

 
General

Format : MPEG-4
Format profile : Base Media
Codec ID : isom
File size : 14.6 MiB
Duration : 3mn 22s
Overall bit rate mode : Variable
Overall bit rate : 607 Kbps
Recorded date : 2014-08-31T22:03:29-05:00
Writing application : Lavf53.5.0

Video
ID : 1
Format : AVC
Format/Info : Advanced Video Codec
Format profile : Baseline@L3.1
Format settings, CABAC : No
Format settings, ReFrames : 2 frames
Codec ID : avc1
Codec ID/Info : Advanced Video Coding
Duration : 3mn 22s
Bit rate : 512 Kbps
Width : 360 pixels
Height : 240 pixels
Display aspect ratio : 3:2
Frame rate mode : Constant
Frame rate : 29.970 fps
Color space : YUV
Chroma subsampling : 4:2:0
Bit depth : 8 bits
Scan type : Progressive
Bits/(Pixel*Frame) : 0.198
Stream size : 12.3 MiB (84%)
Writing library : x264 core 125
Encoding settings : cabac=0 / ref=2 / deblock=1:0:0 / analyse=0×1:0×111 / me=hex / subme=6 / psy=1 / psy_rd=1.00:0.00 / mixed_ref=0 / me_range=16 / chroma_me=1 / trellis=0 / 8x8dct=0 / cqm=0 / deadzone=21,11 / fast_pskip=1 / chroma_qp_offset=-2 / threads=1 / lookahead_threads=1 / sliced_threads=0 / nr=0 / decimate=1 / interlaced=0 / bluray_compat=0 / constrained_intra=0 / bframes=0 / weightp=0 / keyint=250 / keyint_min=25 / scenecut=40 / intra_refresh=0 / rc_lookahead=40 / rc=2pass / mbtree=1 / bitrate=512 / ratetol=1.0 / qcomp=0.50 / qpmin=10 / qpmax=51 / qpstep=4 / cplxblur=20.0 / qblur=0.5 / ip_ratio=1.41 / aq=1:1.00
Tagged date : UTC 2014-09-02 18:13:42

Audio
ID : 2
Format : AAC
Format/Info : Advanced Audio Codec
Format profile : LC
Codec ID : 40
Duration : 3mn 22s
Bit rate mode : Variable
Bit rate : 53.5 Kbps
Maximum bit rate : 56.0 Kbps
Channel(s) : 2 channels
Channel positions : Front: L R
Sampling rate : 48.0 KHz
Compression mode : Lossy
Stream size : 1.29 MiB (9%)
Tagged date : UTC 2014-09-02 18:13:42

Download :

http://dfiles.ru/files/x7515guqp
http://rapidgator.net/file/b589fc609674ce0e25849b29e73faeff/Twerking_social_media_slut_with_huge_juicy_bubble_butt-3469619.zip.html