Chica mira mi corrida, dick flash-3984486

 
General

Format : MPEG-4
Format profile : Base Media
Codec ID : isom
File size : 56.8 MiB
Duration : 4mn 10s
Overall bit rate : 1 904 Kbps
Writing application : Lavf53.5.0

Video
ID : 1
Format : AVC
Format/Info : Advanced Video Codec
Format profile : Baseline@L3.1
Format settings, CABAC : No
Format settings, ReFrames : 2 frames
Codec ID : avc1
Codec ID/Info : Advanced Video Coding
Duration : 4mn 10s
Bit rate : 1 755 Kbps
Nominal bit rate : 2 048 Kbps
Width : 1 280 pixels
Height : 462 pixels
Display aspect ratio : 2.771
Frame rate mode : Constant
Frame rate : 30.000 fps
Color space : YUV
Chroma subsampling : 4:2:0
Bit depth : 8 bits
Scan type : Progressive
Bits/(Pixel*Frame) : 0.099
Stream size : 52.3 MiB (92%)
Writing library : x264 core 125
Encoding settings : cabac=0 / ref=2 / deblock=1:0:0 / analyse=0×1:0×111 / me=hex / subme=6 / psy=1 / psy_rd=1.00:0.00 / mixed_ref=0 / me_range=16 / chroma_me=1 / trellis=0 / 8x8dct=0 / cqm=0 / deadzone=21,11 / fast_pskip=1 / chroma_qp_offset=-2 / threads=1 / lookahead_threads=1 / sliced_threads=0 / nr=0 / decimate=1 / interlaced=0 / bluray_compat=0 / constrained_intra=0 / bframes=0 / weightp=0 / keyint=250 / keyint_min=25 / scenecut=40 / intra_refresh=0 / rc_lookahead=40 / rc=2pass / mbtree=1 / bitrate=2048 / ratetol=1.0 / qcomp=0.50 / qpmin=10 / qpmax=51 / qpstep=4 / cplxblur=20.0 / qblur=0.5 / ip_ratio=1.41 / aq=1:1.00
Language : English
Tagged date : UTC 2015-01-01 18:41:00

Audio
ID : 2
Format : AAC
Format/Info : Advanced Audio Codec
Format profile : LC
Codec ID : 40
Duration : 4mn 10s
Bit rate mode : Constant
Bit rate : 55.9 Kbps
Channel(s) : 2 channels
Channel positions : Front: L R
Sampling rate : 44.1 KHz
Compression mode : Lossy
Stream size : 1.67 MiB (3%)
Language : English
Tagged date : UTC 2015-01-01 18:41:00

Download :

http://dfiles.ru/files/6pymzrlzz
http://rapidgator.net/file/5efc3ad630c0e2b75829a1eb2e471e99/Chica_mira_mi_corrida,_dick_flash-3984486.zip.html

Comments are closed.