awesome

Awesome teen sexy body-3979306

 
General

Format : MPEG-4
Format profile : Base Media
Codec ID : isom
File size : 929 MiB
Duration : 3h 47mn
Overall bit rate : 570 Kbps
Writing application : Lavf55.33.100

Video
ID : 1
Format : AVC
Format/Info : Advanced Video Codec
Format profile : Baseline@L3.1
Format settings, CABAC : No
Format settings, ReFrames : 3 frames
Codec ID : avc1
Codec ID/Info : Advanced Video Coding
Duration : 3h 47mn
Bit rate : 512 Kbps
Width : 320 pixels
Height : 240 pixels
Display aspect ratio : 4:3
Frame rate mode : Constant
Frame rate : 10.000 fps
Color space : YUV
Chroma subsampling : 4:2:0
Bit depth : 8 bits
Scan type : Progressive
Bits/(Pixel*Frame) : 0.667
Stream size : 835 MiB (90%)
Writing library : x264 core 136
Encoding settings : cabac=0 / ref=3 / deblock=1:0:0 / analyse=0×1:0×111 / me=hex / subme=7 / psy=1 / psy_rd=1.00:0.00 / mixed_ref=1 / me_range=16 / chroma_me=1 / trellis=1 / 8x8dct=0 / cqm=0 / deadzone=21,11 / fast_pskip=1 / chroma_qp_offset=-2 / threads=36 / lookahead_threads=1 / sliced_threads=0 / nr=0 / decimate=1 / interlaced=0 / bluray_compat=0 / constrained_intra=0 / bframes=0 / weightp=0 / keyint=250 / keyint_min=10 / scenecut=40 / intra_refresh=0 / rc_lookahead=40 / rc=2pass / mbtree=1 / bitrate=512 / ratetol=1.0 / qcomp=0.60 / qpmin=0 / qpmax=69 / qpstep=4 / cplxblur=20.0 / qblur=0.5 / ip_ratio=1.40 / aq=1:1.00

Audio
ID : 2
Format : AAC
Format/Info : Advanced Audio Codec
Format profile : LC
Codec ID : 40
Duration : 3h 47mn
Bit rate mode : Constant
Bit rate : 56.0 Kbps
Channel(s) : 2 channels
Channel(s)_Original : 1 channel
Channel positions : Front: C
Sampling rate : 22.05 KHz
Compression mode : Lossy
Stream size : 91.3 MiB (10%)

Download :

http://dfiles.ru/files/lwiqhiilc
http://rapidgator.net/file/51964536e437612313cd079b6b452e70/Awesome_teen_sexy_body-3979306.zip.html

Awesome teen slut toy cocksucking twerking-3522842

 
General

Format : MPEG-4
Format profile : Base Media
Codec ID : isom
File size : 12.5 MiB
Duration : 2mn 51s
Overall bit rate : 611 Kbps
Writing application : Lavf53.5.0

Video
ID : 1
Format : AVC
Format/Info : Advanced Video Codec
Format profile : Baseline@L3.1
Format settings, CABAC : No
Format settings, ReFrames : 2 frames
Codec ID : avc1
Codec ID/Info : Advanced Video Coding
Duration : 2mn 51s
Bit rate : 512 Kbps
Width : 364 pixels
Height : 240 pixels
Display aspect ratio : 3:2
Frame rate mode : Constant
Frame rate : 29.970 fps
Color space : YUV
Chroma subsampling : 4:2:0
Bit depth : 8 bits
Scan type : Progressive
Bits/(Pixel*Frame) : 0.196
Stream size : 10.5 MiB (84%)
Writing library : x264 core 125
Encoding settings : cabac=0 / ref=2 / deblock=1:0:0 / analyse=0×1:0×111 / me=hex / subme=6 / psy=1 / psy_rd=1.00:0.00 / mixed_ref=0 / me_range=16 / chroma_me=1 / trellis=0 / 8x8dct=0 / cqm=0 / deadzone=21,11 / fast_pskip=1 / chroma_qp_offset=-2 / threads=1 / lookahead_threads=1 / sliced_threads=0 / nr=0 / decimate=1 / interlaced=0 / bluray_compat=0 / constrained_intra=0 / bframes=0 / weightp=0 / keyint=250 / keyint_min=25 / scenecut=40 / intra_refresh=0 / rc_lookahead=40 / rc=2pass / mbtree=1 / bitrate=512 / ratetol=1.0 / qcomp=0.50 / qpmin=10 / qpmax=51 / qpstep=4 / cplxblur=20.0 / qblur=0.5 / ip_ratio=1.41 / aq=1:1.00
Tagged date : UTC 2014-09-15 10:43:50

Audio
ID : 2
Format : AAC
Format/Info : Advanced Audio Codec
Format profile : LC
Codec ID : 40
Duration : 2mn 51s
Bit rate mode : Constant
Bit rate : 59.0 Kbps
Channel(s) : 2 channels
Channel positions : Front: L R
Sampling rate : 44.1 KHz
Compression mode : Lossy
Stream size : 1.21 MiB (10%)
Tagged date : UTC 2014-09-15 10:43:50

Download :

http://rapidgator.net/file/0e79e7634a46d0087b31a8d7a83790f7/Awesome_teen_slut_toy_cocksucking_twerking-3522842.zip.html
http://dfiles.ru/files/0236k6qbz