lana

Lana Lotts – Sex Therapy

 
General

Format : MPEG-4
Format profile : Base Media
Codec ID : isom
File size : 61.4 MiB
Duration : 10mn 43s
Overall bit rate : 800 Kbps
Movie name : Lana Lotts in “Sex Therapy” Virtual Lap Dance
Performer : Danni Ashe
Writing application : Lavf56.4.101
Copyright : 2004 Danni’s Hard Drive. All Rights Reserved.
Comment : Virtual Lap Dance

Video
ID : 1
Format : AVC
Format/Info : Advanced Video Codec
Format profile : High@L3.0
Format settings, CABAC : Yes
Format settings, ReFrames : 4 frames
Codec ID : avc1
Codec ID/Info : Advanced Video Coding
Duration : 10mn 42s
Bit rate : 731 Kbps
Width : 480 pixels
Height : 360 pixels
Display aspect ratio : 4:3
Frame rate mode : Constant
Frame rate : 30.000 fps
Color space : YUV
Chroma subsampling : 4:2:0
Bit depth : 8 bits
Scan type : Progressive
Bits/(Pixel*Frame) : 0.141
Stream size : 56.0 MiB (91%)
Writing library : x264 core 142 r2431 ac76440
Encoding settings : cabac=1 / ref=3 / deblock=1:0:0 / analyse=0×3:0×113 / me=hex / subme=7 / psy=1 / psy_rd=1.00:0.00 / mixed_ref=1 / me_range=16 / chroma_me=1 / trellis=1 / 8x8dct=1 / cqm=0 / deadzone=21,11 / fast_pskip=1 / chroma_qp_offset=-2 / threads=12 / lookahead_threads=2 / sliced_threads=0 / nr=0 / decimate=1 / interlaced=0 / bluray_compat=0 / constrained_intra=0 / bframes=3 / b_pyramid=2 / b_adapt=1 / b_bias=0 / direct=1 / weightb=1 / open_gop=0 / weightp=2 / keyint=250 / keyint_min=25 / scenecut=40 / intra_refresh=0 / rc_lookahead=40 / rc=crf / mbtree=1 / crf=23.0 / qcomp=0.60 / qpmin=0 / qpmax=69 / qpstep=4 / ip_ratio=1.40 / aq=1:1.00
Language : English

Audio
ID : 2
Format : AAC
Format/Info : Advanced Audio Codec
Format profile : LC
Codec ID : 40
Duration : 10mn 43s
Bit rate mode : Constant
Bit rate : 64.2 Kbps
Channel(s) : 2 channels
Channel positions : Front: L R
Sampling rate : 22.05 KHz
Compression mode : Lossy
Stream size : 4.92 MiB (8%)
Language : English

Download :

http://dfiles.ru/files/k8475azrb
http://rapidgator.net/file/7bf1762e18f955766b9e006ce1ad4958/Lana_Lotts_-_Sex_Therapy.zip.html

Lana Lotts – Room Service

 
General

Format : MPEG-4
Format profile : Base Media
Codec ID : isom
File size : 39.7 MiB
Duration : 6mn 38s
Overall bit rate : 836 Kbps
Movie name : Lana Lotts’ Virtual Lap Dance
Performer : Danni Ashe
Writing application : Lavf56.4.101
Copyright : 2003 Danni’s Hard Drive. All Rights Reserved.

Video
ID : 1
Format : AVC
Format/Info : Advanced Video Codec
Format profile : High@L3.0
Format settings, CABAC : Yes
Format settings, ReFrames : 4 frames
Codec ID : avc1
Codec ID/Info : Advanced Video Coding
Duration : 6mn 37s
Bit rate : 768 Kbps
Width : 480 pixels
Height : 360 pixels
Display aspect ratio : 4:3
Frame rate mode : Constant
Frame rate : 29.970 fps
Color space : YUV
Chroma subsampling : 4:2:0
Bit depth : 8 bits
Scan type : Progressive
Bits/(Pixel*Frame) : 0.148
Stream size : 36.4 MiB (92%)
Writing library : x264 core 142 r2431 ac76440
Encoding settings : cabac=1 / ref=3 / deblock=1:0:0 / analyse=0×3:0×113 / me=hex / subme=7 / psy=1 / psy_rd=1.00:0.00 / mixed_ref=1 / me_range=16 / chroma_me=1 / trellis=1 / 8x8dct=1 / cqm=0 / deadzone=21,11 / fast_pskip=1 / chroma_qp_offset=-2 / threads=12 / lookahead_threads=2 / sliced_threads=0 / nr=0 / decimate=1 / interlaced=0 / bluray_compat=0 / constrained_intra=0 / bframes=3 / b_pyramid=2 / b_adapt=1 / b_bias=0 / direct=1 / weightb=1 / open_gop=0 / weightp=2 / keyint=250 / keyint_min=25 / scenecut=40 / intra_refresh=0 / rc_lookahead=40 / rc=crf / mbtree=1 / crf=23.0 / qcomp=0.60 / qpmin=0 / qpmax=69 / qpstep=4 / ip_ratio=1.40 / aq=1:1.00
Language : English

Audio
ID : 2
Format : AAC
Format/Info : Advanced Audio Codec
Format profile : LC
Codec ID : 40
Duration : 6mn 38s
Bit rate mode : Constant
Bit rate : 64.2 Kbps
Channel(s) : 2 channels
Channel positions : Front: L R
Sampling rate : 22.05 KHz
Compression mode : Lossy
Stream size : 3.04 MiB (8%)
Language : English

Download :

http://dfiles.ru/files/4xss81big
http://rapidgator.net/file/1da2db2ae318ed5d526e018c104cc40d/Lana_Lotts_-_Room_Service.zip.html

Lana Lotts – MarLana Dietrich

 
General

Format : MPEG-4
Format profile : Base Media
Codec ID : isom
File size : 72.9 MiB
Duration : 7mn 8s
Overall bit rate : 1 427 Kbps
Writing application : Lavf56.4.101

Video
ID : 1
Format : AVC
Format/Info : Advanced Video Codec
Format profile : High@L3.0
Format settings, CABAC : Yes
Format settings, ReFrames : 4 frames
Codec ID : avc1
Codec ID/Info : Advanced Video Coding
Duration : 7mn 8s
Bit rate : 1 357 Kbps
Width : 640 pixels
Height : 480 pixels
Display aspect ratio : 4:3
Frame rate mode : Constant
Frame rate : 29.970 fps
Color space : YUV
Chroma subsampling : 4:2:0
Bit depth : 8 bits
Scan type : Progressive
Bits/(Pixel*Frame) : 0.147
Stream size : 69.3 MiB (95%)
Writing library : x264 core 142 r2431 ac76440
Encoding settings : cabac=1 / ref=3 / deblock=1:0:0 / analyse=0×3:0×113 / me=hex / subme=7 / psy=1 / psy_rd=1.00:0.00 / mixed_ref=1 / me_range=16 / chroma_me=1 / trellis=1 / 8x8dct=1 / cqm=0 / deadzone=21,11 / fast_pskip=1 / chroma_qp_offset=-2 / threads=12 / lookahead_threads=2 / sliced_threads=0 / nr=0 / decimate=1 / interlaced=0 / bluray_compat=0 / constrained_intra=0 / bframes=3 / b_pyramid=2 / b_adapt=1 / b_bias=0 / direct=1 / weightb=1 / open_gop=0 / weightp=2 / keyint=250 / keyint_min=25 / scenecut=40 / intra_refresh=0 / rc_lookahead=40 / rc=crf / mbtree=1 / crf=23.0 / qcomp=0.60 / qpmin=0 / qpmax=69 / qpstep=4 / ip_ratio=1.40 / aq=1:1.00
Language : English

Audio
ID : 2
Format : AAC
Format/Info : Advanced Audio Codec
Format profile : LC
Codec ID : 40
Duration : 7mn 8s
Bit rate mode : Constant
Bit rate : 64.2 Kbps
Channel(s) : 2 channels
Channel positions : Front: L R
Sampling rate : 22.05 KHz
Compression mode : Lossy
Stream size : 3.28 MiB (4%)
Language : English

Download :

http://rapidgator.net/file/8e031df10ce6f5dea84559e02c7d367d/Lana_Lotts_-_MarLana_Dietrich.zip.html
http://dfiles.ru/files/h5b9w2cno

Lana Lotts – Island Greeting

 
General

Format : MPEG-4
Format profile : Base Media
Codec ID : isom
File size : 94.6 MiB
Duration : 9mn 10s
Overall bit rate : 1 441 Kbps
Album/Performer : Danni’s Hard Drive
Performer : Hotbox
Writing application : Lavf56.4.101
Copyright : Copyright (c) 2003 Danni’s Hard Drive

Video
ID : 1
Format : AVC
Format/Info : Advanced Video Codec
Format profile : High@L3.0
Format settings, CABAC : Yes
Format settings, ReFrames : 4 frames
Codec ID : avc1
Codec ID/Info : Advanced Video Coding
Duration : 9mn 10s
Bit rate : 1 373 Kbps
Width : 576 pixels
Height : 432 pixels
Display aspect ratio : 4:3
Frame rate mode : Constant
Frame rate : 29.970 fps
Color space : YUV
Chroma subsampling : 4:2:0
Bit depth : 8 bits
Scan type : Progressive
Bits/(Pixel*Frame) : 0.184
Stream size : 90.0 MiB (95%)
Writing library : x264 core 142 r2431 ac76440
Encoding settings : cabac=1 / ref=3 / deblock=1:0:0 / analyse=0×3:0×113 / me=hex / subme=7 / psy=1 / psy_rd=1.00:0.00 / mixed_ref=1 / me_range=16 / chroma_me=1 / trellis=1 / 8x8dct=1 / cqm=0 / deadzone=21,11 / fast_pskip=1 / chroma_qp_offset=-2 / threads=12 / lookahead_threads=2 / sliced_threads=0 / nr=0 / decimate=1 / interlaced=0 / bluray_compat=0 / constrained_intra=0 / bframes=3 / b_pyramid=2 / b_adapt=1 / b_bias=0 / direct=1 / weightb=1 / open_gop=0 / weightp=2 / keyint=250 / keyint_min=25 / scenecut=40 / intra_refresh=0 / rc_lookahead=40 / rc=crf / mbtree=1 / crf=23.0 / qcomp=0.60 / qpmin=0 / qpmax=69 / qpstep=4 / ip_ratio=1.40 / aq=1:1.00
Language : English

Audio
ID : 2
Format : AAC
Format/Info : Advanced Audio Codec
Format profile : LC
Codec ID : 40
Duration : 9mn 10s
Bit rate mode : Constant
Bit rate : 64.2 Kbps
Channel(s) : 2 channels
Channel positions : Front: L R
Sampling rate : 22.05 KHz
Compression mode : Lossy
Stream size : 4.21 MiB (4%)
Language : English

Download :

http://dfiles.ru/files/bsnqu3t8q
http://rapidgator.net/file/15caeac96227b297863094e0ebf2089d/Lana_Lotts_-_Island_Greeting.zip.html

Lana Lopez – Shiny Hiney

 
General

Format : MPEG-4
Format profile : Base Media
Codec ID : isom
File size : 63.7 MiB
Duration : 8mn 36s
Overall bit rate : 1 034 Kbps
Writing application : Lavf56.4.101

Video
ID : 1
Format : AVC
Format/Info : Advanced Video Codec
Format profile : High@L3.0
Format settings, CABAC : Yes
Format settings, ReFrames : 4 frames
Codec ID : avc1
Codec ID/Info : Advanced Video Coding
Duration : 8mn 36s
Bit rate : 964 Kbps
Width : 638 pixels
Height : 480 pixels
Display aspect ratio : 4:3
Frame rate mode : Constant
Frame rate : 29.970 fps
Color space : YUV
Chroma subsampling : 4:2:0
Bit depth : 8 bits
Scan type : Progressive
Bits/(Pixel*Frame) : 0.105
Stream size : 59.4 MiB (93%)
Writing library : x264 core 142 r2431 ac76440
Encoding settings : cabac=1 / ref=3 / deblock=1:0:0 / analyse=0×3:0×113 / me=hex / subme=7 / psy=1 / psy_rd=1.00:0.00 / mixed_ref=1 / me_range=16 / chroma_me=1 / trellis=1 / 8x8dct=1 / cqm=0 / deadzone=21,11 / fast_pskip=1 / chroma_qp_offset=-2 / threads=12 / lookahead_threads=2 / sliced_threads=0 / nr=0 / decimate=1 / interlaced=0 / bluray_compat=0 / constrained_intra=0 / bframes=3 / b_pyramid=2 / b_adapt=1 / b_bias=0 / direct=1 / weightb=1 / open_gop=0 / weightp=2 / keyint=250 / keyint_min=25 / scenecut=40 / intra_refresh=0 / rc_lookahead=40 / rc=crf / mbtree=1 / crf=23.0 / qcomp=0.60 / qpmin=0 / qpmax=69 / qpstep=4 / ip_ratio=1.40 / aq=1:1.00
Language : English

Audio
ID : 2
Format : AAC
Format/Info : Advanced Audio Codec
Format profile : LC
Codec ID : 40
Duration : 8mn 36s
Bit rate mode : Constant
Bit rate : 64.2 Kbps
Channel(s) : 2 channels
Channel positions : Front: L R
Sampling rate : 22.05 KHz
Compression mode : Lossy
Stream size : 3.95 MiB (6%)
Language : English

Download :

http://dfiles.ru/files/hi1d5km7e
http://rapidgator.net/file/d5eef4dbb454f6cbef3ac115db035f56/Lana_Lopez_-_Shiny_Hiney.zip.html

Lana Lotts – Sex Therapy

 
General

Format : MPEG-4
Format profile : Base Media
Codec ID : isom
File size : 61.4 MiB
Duration : 10mn 43s
Overall bit rate : 800 Kbps
Movie name : Lana Lotts in “Sex Therapy” Virtual Lap Dance
Performer : Danni Ashe
Writing application : Lavf56.4.101
Copyright : 2004 Danni’s Hard Drive. All Rights Reserved.
Comment : Virtual Lap Dance

Video
ID : 1
Format : AVC
Format/Info : Advanced Video Codec
Format profile : High@L3.0
Format settings, CABAC : Yes
Format settings, ReFrames : 4 frames
Codec ID : avc1
Codec ID/Info : Advanced Video Coding
Duration : 10mn 42s
Bit rate : 731 Kbps
Width : 480 pixels
Height : 360 pixels
Display aspect ratio : 4:3
Frame rate mode : Constant
Frame rate : 30.000 fps
Color space : YUV
Chroma subsampling : 4:2:0
Bit depth : 8 bits
Scan type : Progressive
Bits/(Pixel*Frame) : 0.141
Stream size : 56.0 MiB (91%)
Writing library : x264 core 142 r2431 ac76440
Encoding settings : cabac=1 / ref=3 / deblock=1:0:0 / analyse=0×3:0×113 / me=hex / subme=7 / psy=1 / psy_rd=1.00:0.00 / mixed_ref=1 / me_range=16 / chroma_me=1 / trellis=1 / 8x8dct=1 / cqm=0 / deadzone=21,11 / fast_pskip=1 / chroma_qp_offset=-2 / threads=12 / lookahead_threads=2 / sliced_threads=0 / nr=0 / decimate=1 / interlaced=0 / bluray_compat=0 / constrained_intra=0 / bframes=3 / b_pyramid=2 / b_adapt=1 / b_bias=0 / direct=1 / weightb=1 / open_gop=0 / weightp=2 / keyint=250 / keyint_min=25 / scenecut=40 / intra_refresh=0 / rc_lookahead=40 / rc=crf / mbtree=1 / crf=23.0 / qcomp=0.60 / qpmin=0 / qpmax=69 / qpstep=4 / ip_ratio=1.40 / aq=1:1.00
Language : English

Audio
ID : 2
Format : AAC
Format/Info : Advanced Audio Codec
Format profile : LC
Codec ID : 40
Duration : 10mn 43s
Bit rate mode : Constant
Bit rate : 64.2 Kbps
Channel(s) : 2 channels
Channel positions : Front: L R
Sampling rate : 22.05 KHz
Compression mode : Lossy
Stream size : 4.92 MiB (8%)
Language : English

Download :

http://dfiles.ru/files/2tqftqlta
http://rapidgator.net/file/94dae031a53ee80e08cc955c52e552e1/Lana_Lotts_-_Sex_Therapy.zip.html

Lana Lotts – Room Service

 
General

Format : MPEG-4
Format profile : Base Media
Codec ID : isom
File size : 39.7 MiB
Duration : 6mn 38s
Overall bit rate : 836 Kbps
Movie name : Lana Lotts’ Virtual Lap Dance
Performer : Danni Ashe
Writing application : Lavf56.4.101
Copyright : 2003 Danni’s Hard Drive. All Rights Reserved.

Video
ID : 1
Format : AVC
Format/Info : Advanced Video Codec
Format profile : High@L3.0
Format settings, CABAC : Yes
Format settings, ReFrames : 4 frames
Codec ID : avc1
Codec ID/Info : Advanced Video Coding
Duration : 6mn 37s
Bit rate : 768 Kbps
Width : 480 pixels
Height : 360 pixels
Display aspect ratio : 4:3
Frame rate mode : Constant
Frame rate : 29.970 fps
Color space : YUV
Chroma subsampling : 4:2:0
Bit depth : 8 bits
Scan type : Progressive
Bits/(Pixel*Frame) : 0.148
Stream size : 36.4 MiB (92%)
Writing library : x264 core 142 r2431 ac76440
Encoding settings : cabac=1 / ref=3 / deblock=1:0:0 / analyse=0×3:0×113 / me=hex / subme=7 / psy=1 / psy_rd=1.00:0.00 / mixed_ref=1 / me_range=16 / chroma_me=1 / trellis=1 / 8x8dct=1 / cqm=0 / deadzone=21,11 / fast_pskip=1 / chroma_qp_offset=-2 / threads=12 / lookahead_threads=2 / sliced_threads=0 / nr=0 / decimate=1 / interlaced=0 / bluray_compat=0 / constrained_intra=0 / bframes=3 / b_pyramid=2 / b_adapt=1 / b_bias=0 / direct=1 / weightb=1 / open_gop=0 / weightp=2 / keyint=250 / keyint_min=25 / scenecut=40 / intra_refresh=0 / rc_lookahead=40 / rc=crf / mbtree=1 / crf=23.0 / qcomp=0.60 / qpmin=0 / qpmax=69 / qpstep=4 / ip_ratio=1.40 / aq=1:1.00
Language : English

Audio
ID : 2
Format : AAC
Format/Info : Advanced Audio Codec
Format profile : LC
Codec ID : 40
Duration : 6mn 38s
Bit rate mode : Constant
Bit rate : 64.2 Kbps
Channel(s) : 2 channels
Channel positions : Front: L R
Sampling rate : 22.05 KHz
Compression mode : Lossy
Stream size : 3.04 MiB (8%)
Language : English

Download :

http://rapidgator.net/file/4208a186d8c6b57d91d3c55907af9335/Lana_Lotts_-_Room_Service.zip.html
http://dfiles.ru/files/npthwhmwa

Lana Lotts – MarLana Dietrich

 
General

Format : MPEG-4
Format profile : Base Media
Codec ID : isom
File size : 72.9 MiB
Duration : 7mn 8s
Overall bit rate : 1 427 Kbps
Writing application : Lavf56.4.101

Video
ID : 1
Format : AVC
Format/Info : Advanced Video Codec
Format profile : High@L3.0
Format settings, CABAC : Yes
Format settings, ReFrames : 4 frames
Codec ID : avc1
Codec ID/Info : Advanced Video Coding
Duration : 7mn 8s
Bit rate : 1 357 Kbps
Width : 640 pixels
Height : 480 pixels
Display aspect ratio : 4:3
Frame rate mode : Constant
Frame rate : 29.970 fps
Color space : YUV
Chroma subsampling : 4:2:0
Bit depth : 8 bits
Scan type : Progressive
Bits/(Pixel*Frame) : 0.147
Stream size : 69.3 MiB (95%)
Writing library : x264 core 142 r2431 ac76440
Encoding settings : cabac=1 / ref=3 / deblock=1:0:0 / analyse=0×3:0×113 / me=hex / subme=7 / psy=1 / psy_rd=1.00:0.00 / mixed_ref=1 / me_range=16 / chroma_me=1 / trellis=1 / 8x8dct=1 / cqm=0 / deadzone=21,11 / fast_pskip=1 / chroma_qp_offset=-2 / threads=12 / lookahead_threads=2 / sliced_threads=0 / nr=0 / decimate=1 / interlaced=0 / bluray_compat=0 / constrained_intra=0 / bframes=3 / b_pyramid=2 / b_adapt=1 / b_bias=0 / direct=1 / weightb=1 / open_gop=0 / weightp=2 / keyint=250 / keyint_min=25 / scenecut=40 / intra_refresh=0 / rc_lookahead=40 / rc=crf / mbtree=1 / crf=23.0 / qcomp=0.60 / qpmin=0 / qpmax=69 / qpstep=4 / ip_ratio=1.40 / aq=1:1.00
Language : English

Audio
ID : 2
Format : AAC
Format/Info : Advanced Audio Codec
Format profile : LC
Codec ID : 40
Duration : 7mn 8s
Bit rate mode : Constant
Bit rate : 64.2 Kbps
Channel(s) : 2 channels
Channel positions : Front: L R
Sampling rate : 22.05 KHz
Compression mode : Lossy
Stream size : 3.28 MiB (4%)
Language : English

Download :

http://rapidgator.net/file/4f8f8960a3770ee1db7b44f87ca87ec9/Lana_Lotts_-_MarLana_Dietrich.zip.html
http://dfiles.ru/files/g1hw0skcf

Lana Lotts – Island Greeting

 
General

Format : MPEG-4
Format profile : Base Media
Codec ID : isom
File size : 94.6 MiB
Duration : 9mn 10s
Overall bit rate : 1 441 Kbps
Album/Performer : Danni’s Hard Drive
Performer : Hotbox
Writing application : Lavf56.4.101
Copyright : Copyright (c) 2003 Danni’s Hard Drive

Video
ID : 1
Format : AVC
Format/Info : Advanced Video Codec
Format profile : High@L3.0
Format settings, CABAC : Yes
Format settings, ReFrames : 4 frames
Codec ID : avc1
Codec ID/Info : Advanced Video Coding
Duration : 9mn 10s
Bit rate : 1 373 Kbps
Width : 576 pixels
Height : 432 pixels
Display aspect ratio : 4:3
Frame rate mode : Constant
Frame rate : 29.970 fps
Color space : YUV
Chroma subsampling : 4:2:0
Bit depth : 8 bits
Scan type : Progressive
Bits/(Pixel*Frame) : 0.184
Stream size : 90.0 MiB (95%)
Writing library : x264 core 142 r2431 ac76440
Encoding settings : cabac=1 / ref=3 / deblock=1:0:0 / analyse=0×3:0×113 / me=hex / subme=7 / psy=1 / psy_rd=1.00:0.00 / mixed_ref=1 / me_range=16 / chroma_me=1 / trellis=1 / 8x8dct=1 / cqm=0 / deadzone=21,11 / fast_pskip=1 / chroma_qp_offset=-2 / threads=12 / lookahead_threads=2 / sliced_threads=0 / nr=0 / decimate=1 / interlaced=0 / bluray_compat=0 / constrained_intra=0 / bframes=3 / b_pyramid=2 / b_adapt=1 / b_bias=0 / direct=1 / weightb=1 / open_gop=0 / weightp=2 / keyint=250 / keyint_min=25 / scenecut=40 / intra_refresh=0 / rc_lookahead=40 / rc=crf / mbtree=1 / crf=23.0 / qcomp=0.60 / qpmin=0 / qpmax=69 / qpstep=4 / ip_ratio=1.40 / aq=1:1.00
Language : English

Audio
ID : 2
Format : AAC
Format/Info : Advanced Audio Codec
Format profile : LC
Codec ID : 40
Duration : 9mn 10s
Bit rate mode : Constant
Bit rate : 64.2 Kbps
Channel(s) : 2 channels
Channel positions : Front: L R
Sampling rate : 22.05 KHz
Compression mode : Lossy
Stream size : 4.21 MiB (4%)
Language : English

Download :

http://rapidgator.net/file/f4efeae18fe1b6db6040c8a21058f5a6/Lana_Lotts_-_Island_Greeting.zip.html
http://dfiles.ru/files/pt7b6k782

Lana Lopez – Shiny Hiney

 
General

Format : MPEG-4
Format profile : Base Media
Codec ID : isom
File size : 63.7 MiB
Duration : 8mn 36s
Overall bit rate : 1 034 Kbps
Writing application : Lavf56.4.101

Video
ID : 1
Format : AVC
Format/Info : Advanced Video Codec
Format profile : High@L3.0
Format settings, CABAC : Yes
Format settings, ReFrames : 4 frames
Codec ID : avc1
Codec ID/Info : Advanced Video Coding
Duration : 8mn 36s
Bit rate : 964 Kbps
Width : 638 pixels
Height : 480 pixels
Display aspect ratio : 4:3
Frame rate mode : Constant
Frame rate : 29.970 fps
Color space : YUV
Chroma subsampling : 4:2:0
Bit depth : 8 bits
Scan type : Progressive
Bits/(Pixel*Frame) : 0.105
Stream size : 59.4 MiB (93%)
Writing library : x264 core 142 r2431 ac76440
Encoding settings : cabac=1 / ref=3 / deblock=1:0:0 / analyse=0×3:0×113 / me=hex / subme=7 / psy=1 / psy_rd=1.00:0.00 / mixed_ref=1 / me_range=16 / chroma_me=1 / trellis=1 / 8x8dct=1 / cqm=0 / deadzone=21,11 / fast_pskip=1 / chroma_qp_offset=-2 / threads=12 / lookahead_threads=2 / sliced_threads=0 / nr=0 / decimate=1 / interlaced=0 / bluray_compat=0 / constrained_intra=0 / bframes=3 / b_pyramid=2 / b_adapt=1 / b_bias=0 / direct=1 / weightb=1 / open_gop=0 / weightp=2 / keyint=250 / keyint_min=25 / scenecut=40 / intra_refresh=0 / rc_lookahead=40 / rc=crf / mbtree=1 / crf=23.0 / qcomp=0.60 / qpmin=0 / qpmax=69 / qpstep=4 / ip_ratio=1.40 / aq=1:1.00
Language : English

Audio
ID : 2
Format : AAC
Format/Info : Advanced Audio Codec
Format profile : LC
Codec ID : 40
Duration : 8mn 36s
Bit rate mode : Constant
Bit rate : 64.2 Kbps
Channel(s) : 2 channels
Channel positions : Front: L R
Sampling rate : 22.05 KHz
Compression mode : Lossy
Stream size : 3.95 MiB (6%)
Language : English

Download :

http://dfiles.ru/files/j6v4wa9h2
http://rapidgator.net/file/c5bdd6bd4ea12ff7ac70dac811e7e2e4/Lana_Lopez_-_Shiny_Hiney.zip.html