night

Fight Night TWERK-3427632

 
General

Format : MPEG-4
Format profile : Base Media
Codec ID : isom
File size : 10.0 MiB
Duration : 2mn 17s
Overall bit rate : 611 Kbps
Writing application : Lavf53.5.0

Video
ID : 1
Format : AVC
Format/Info : Advanced Video Codec
Format profile : High@L2.0
Format settings, CABAC : Yes
Format settings, ReFrames : 4 frames
Codec ID : avc1
Codec ID/Info : Advanced Video Coding
Duration : 2mn 17s
Bit rate : 512 Kbps
Width : 134 pixels
Height : 238 pixels
Display aspect ratio : 0.563
Frame rate mode : Variable
Frame rate : 29.511 fps
Minimum frame rate : 29.500 fps
Maximum frame rate : 59.000 fps
Color space : YUV
Chroma subsampling : 4:2:0
Bit depth : 8 bits
Scan type : Progressive
Bits/(Pixel*Frame) : 0.544
Stream size : 8.43 MiB (84%)
Writing library : x264 core 125
Encoding settings : cabac=1 / ref=2 / deblock=1:0:0 / analyse=0×3:0×113 / me=hex / subme=6 / psy=1 / psy_rd=1.00:0.00 / mixed_ref=0 / me_range=16 / chroma_me=1 / trellis=0 / 8x8dct=1 / cqm=0 / deadzone=21,11 / fast_pskip=1 / chroma_qp_offset=-2 / threads=1 / lookahead_threads=1 / sliced_threads=0 / nr=0 / decimate=1 / interlaced=0 / bluray_compat=0 / constrained_intra=0 / bframes=16 / b_pyramid=2 / b_adapt=0 / b_bias=0 / direct=2 / weightb=1 / open_gop=0 / weightp=2 / keyint=250 / keyint_min=25 / scenecut=40 / intra_refresh=0 / rc_lookahead=40 / rc=2pass / mbtree=1 / bitrate=512 / ratetol=1.0 / qcomp=0.50 / qpmin=10 / qpmax=51 / qpstep=4 / cplxblur=20.0 / qblur=0.5 / ip_ratio=1.41 / aq=1:1.00
Tagged date : UTC 2014-08-21 06:42:46

Audio
ID : 2
Format : AAC
Format/Info : Advanced Audio Codec
Format profile : LC
Codec ID : 40
Duration : 2mn 17s
Bit rate mode : Constant
Bit rate : 58.9 Kbps
Channel(s) : 2 channels
Channel positions : Front: L R
Sampling rate : 44.1 KHz
Compression mode : Lossy
Stream size : 992 KiB (10%)
Tagged date : UTC 2014-08-21 06:42:46

Download :

http://rapidgator.net/file/358010cff2c91586b8d1e624969a1fdd/Fight_Night_TWERK-3427632.zip.html
http://dfiles.ru/files/wq6g5ekym

Bambilove – An Exciting Night at Home

 
General

Format : MPEG-4
Format profile : Base Media
Codec ID : isom
File size : 85.2 MiB
Duration : 7mn 3s
Overall bit rate : 1 687 Kbps
Writing application : Lavf56.4.101

Video
ID : 1
Format : AVC
Format/Info : Advanced Video Codec
Format profile : High@L3.1
Format settings, CABAC : Yes
Format settings, ReFrames : 4 frames
Codec ID : avc1
Codec ID/Info : Advanced Video Coding
Duration : 7mn 3s
Bit rate : 1 618 Kbps
Width : 960 pixels
Height : 540 pixels
Display aspect ratio : 16:9
Frame rate mode : Constant
Frame rate : 23.976 fps
Color space : YUV
Chroma subsampling : 4:2:0
Bit depth : 8 bits
Scan type : Progressive
Bits/(Pixel*Frame) : 0.130
Stream size : 81.7 MiB (96%)
Writing library : x264 core 142 r2431 ac76440
Encoding settings : cabac=1 / ref=3 / deblock=1:0:0 / analyse=0×3:0×113 / me=hex / subme=7 / psy=1 / psy_rd=1.00:0.00 / mixed_ref=1 / me_range=16 / chroma_me=1 / trellis=1 / 8x8dct=1 / cqm=0 / deadzone=21,11 / fast_pskip=1 / chroma_qp_offset=-2 / threads=12 / lookahead_threads=2 / sliced_threads=0 / nr=0 / decimate=1 / interlaced=0 / bluray_compat=0 / constrained_intra=0 / bframes=3 / b_pyramid=2 / b_adapt=1 / b_bias=0 / direct=1 / weightb=1 / open_gop=0 / weightp=2 / keyint=250 / keyint_min=23 / scenecut=40 / intra_refresh=0 / rc_lookahead=40 / rc=crf / mbtree=1 / crf=23.0 / qcomp=0.60 / qpmin=0 / qpmax=69 / qpstep=4 / ip_ratio=1.40 / aq=1:1.00
Language : English

Audio
ID : 2
Format : AAC
Format/Info : Advanced Audio Codec
Format profile : LC
Codec ID : 40
Duration : 7mn 3s
Bit rate mode : Constant
Bit rate : 64.2 Kbps
Channel(s) : 2 channels
Channel positions : Front: L R
Sampling rate : 22.05 KHz
Compression mode : Lossy
Stream size : 3.24 MiB (4%)
Language : English

Download :

http://dfiles.ru/files/tyw03cjnn
http://rapidgator.net/file/1582f82241d0ed75e589dda52b9f6c86/Bambilove_-_An_Exciting_Night_at_Home.zip.html