twerk

White Girl TWERK – Trippy-3507967

 
General

Format : MPEG-4
Format profile : Base Media
Codec ID : isom
File size : 10.0 MiB
Duration : 2mn 20s
Overall bit rate mode : Variable
Overall bit rate : 600 Kbps
Writing application : Lavf53.5.0

Video
ID : 1
Format : AVC
Format/Info : Advanced Video Codec
Format profile : Baseline@L3.1
Format settings, CABAC : No
Format settings, ReFrames : 2 frames
Codec ID : avc1
Codec ID/Info : Advanced Video Coding
Duration : 2mn 20s
Bit rate : 512 Kbps
Width : 136 pixels
Height : 240 pixels
Display aspect ratio : 0.567
Frame rate mode : Constant
Frame rate : 30.000 fps
Color space : YUV
Chroma subsampling : 4:2:0
Bit depth : 8 bits
Scan type : Progressive
Bits/(Pixel*Frame) : 0.523
Stream size : 8.54 MiB (85%)
Writing library : x264 core 119
Encoding settings : cabac=0 / ref=2 / deblock=1:0:0 / analyse=0×1:0×111 / me=hex / subme=6 / psy=1 / psy_rd=1.00:0.00 / mixed_ref=0 / me_range=16 / chroma_me=1 / trellis=0 / 8x8dct=0 / cqm=0 / deadzone=21,11 / fast_pskip=1 / chroma_qp_offset=-2 / threads=1 / sliced_threads=0 / nr=0 / decimate=1 / interlaced=0 / bluray_compat=0 / constrained_intra=0 / bframes=0 / weightp=0 / keyint=250 / keyint_min=25 / scenecut=40 / intra_refresh=0 / rc_lookahead=40 / rc=2pass / mbtree=1 / bitrate=512 / ratetol=1.0 / qcomp=0.50 / qpmin=10 / qpmax=51 / qpstep=4 / cplxblur=20.0 / qblur=0.5 / ip_ratio=1.41 / aq=1:1.00
Tagged date : UTC 2014-09-12 12:20:52

Audio
ID : 2
Format : AAC
Format/Info : Advanced Audio Codec
Format profile : LC
Codec ID : 40
Duration : 2mn 20s
Bit rate mode : Variable
Bit rate : 48.0 Kbps
Maximum bit rate : 56.0 Kbps
Channel(s) : 2 channels
Channel positions : Front: L R
Sampling rate : 44.1 KHz
Compression mode : Lossy
Stream size : 821 KiB (8%)
Tagged date : UTC 2014-09-12 12:20:52

Download :

http://dfiles.ru/files/e2et6ex0u
http://rapidgator.net/file/ea679efec8983ae87224ea332a4919b2/White_Girl_TWERK_-_Trippy-3507967.zip.html

White Girl TWERK – She Thick-3690213

 
General

Format : MPEG-4
Format profile : Base Media
Codec ID : isom
File size : 15.9 MiB
Duration : 3mn 38s
Overall bit rate mode : Variable
Overall bit rate : 609 Kbps
Writing application : Lavf53.5.0

Video
ID : 1
Format : AVC
Format/Info : Advanced Video Codec
Format profile : Baseline@L3.1
Format settings, CABAC : No
Format settings, ReFrames : 2 frames
Codec ID : avc1
Codec ID/Info : Advanced Video Coding
Duration : 3mn 38s
Bit rate : 512 Kbps
Width : 320 pixels
Height : 240 pixels
Display aspect ratio : 4:3
Frame rate mode : Constant
Frame rate : 29.970 fps
Color space : YUV
Chroma subsampling : 4:2:0
Bit depth : 8 bits
Scan type : Progressive
Bits/(Pixel*Frame) : 0.222
Stream size : 13.4 MiB (84%)
Writing library : x264 core 125
Encoding settings : cabac=0 / ref=2 / deblock=1:0:0 / analyse=0×1:0×111 / me=hex / subme=6 / psy=1 / psy_rd=1.00:0.00 / mixed_ref=0 / me_range=16 / chroma_me=1 / trellis=0 / 8x8dct=0 / cqm=0 / deadzone=21,11 / fast_pskip=1 / chroma_qp_offset=-2 / threads=1 / lookahead_threads=1 / sliced_threads=0 / nr=0 / decimate=1 / interlaced=0 / bluray_compat=0 / constrained_intra=0 / bframes=0 / weightp=0 / keyint=250 / keyint_min=25 / scenecut=40 / intra_refresh=0 / rc_lookahead=40 / rc=2pass / mbtree=1 / bitrate=512 / ratetol=1.0 / qcomp=0.50 / qpmin=10 / qpmax=51 / qpstep=4 / cplxblur=20.0 / qblur=0.5 / ip_ratio=1.41 / aq=1:1.00
Tagged date : UTC 2014-10-26 23:41:21

Audio
ID : 2
Format : AAC
Format/Info : Advanced Audio Codec
Format profile : LC
Codec ID : 40
Duration : 3mn 38s
Bit rate mode : Variable
Bit rate : 52.8 Kbps
Maximum bit rate : 56.0 Kbps
Channel(s) : 2 channels
Channel positions : Front: L R
Sampling rate : 48.0 KHz
Compression mode : Lossy
Stream size : 1.38 MiB (9%)
Tagged date : UTC 2014-10-26 23:41:21

Download :

http://dfiles.ru/files/i4bydy62q
http://rapidgator.net/file/48b1a5067cc9cda576671a3cf5be4210/White_Girl_TWERK_-_She_Thick-3690213.zip.html

Twerk twerk-2450969

 
General

Format : MPEG-4
Format profile : Base Media
Codec ID : isom
File size : 11.2 MiB
Duration : 2mn 36s
Overall bit rate mode : Variable
Overall bit rate : 598 Kbps
Writing application : Lavf53.5.0

Video
ID : 1
Format : AVC
Format/Info : Advanced Video Codec
Format profile : High@L2.0
Format settings, CABAC : Yes
Format settings, ReFrames : 4 frames
Codec ID : avc1
Codec ID/Info : Advanced Video Coding
Duration : 2mn 36s
Bit rate : 512 Kbps
Width : 180 pixels
Height : 240 pixels
Display aspect ratio : 0.750
Frame rate mode : Constant
Frame rate : 30.000 fps
Color space : YUV
Chroma subsampling : 4:2:0
Bit depth : 8 bits
Scan type : Progressive
Bits/(Pixel*Frame) : 0.395
Stream size : 9.57 MiB (86%)
Writing library : x264 core 119
Encoding settings : cabac=1 / ref=2 / deblock=1:0:0 / analyse=0×3:0×113 / me=hex / subme=6 / psy=1 / psy_rd=1.00:0.00 / mixed_ref=0 / me_range=16 / chroma_me=1 / trellis=0 / 8x8dct=1 / cqm=0 / deadzone=21,11 / fast_pskip=1 / chroma_qp_offset=-2 / threads=1 / sliced_threads=0 / nr=0 / decimate=1 / interlaced=0 / bluray_compat=0 / constrained_intra=0 / bframes=16 / b_pyramid=2 / b_adapt=0 / b_bias=0 / direct=2 / weightb=1 / open_gop=0 / weightp=2 / keyint=250 / keyint_min=25 / scenecut=40 / intra_refresh=0 / rc_lookahead=40 / rc=2pass / mbtree=1 / bitrate=512 / ratetol=1.0 / qcomp=0.50 / qpmin=10 / qpmax=51 / qpstep=4 / cplxblur=20.0 / qblur=0.5 / ip_ratio=1.41 / aq=1:1.00
Tagged date : UTC 2013-11-28 17:16:59

Audio
ID : 2
Format : AAC
Format/Info : Advanced Audio Codec
Format profile : LC
Codec ID : 40
Duration : 2mn 36s
Bit rate mode : Variable
Bit rate : 48.0 Kbps
Maximum bit rate : 56.0 Kbps
Channel(s) : 2 channels
Channel positions : Front: L R
Sampling rate : 44.1 KHz
Compression mode : Lossy
Stream size : 915 KiB (8%)
Tagged date : UTC 2013-11-28 17:16:59

Download :

http://rapidgator.net/file/ba535a1a6cfb14e1d612bf71f3150174/Twerk_twerk-2450969.zip.html
http://dfiles.ru/files/wvrth6d12

Twerk it, shake it, squeeze it, leave it-3582849

 
General

Format : MPEG-4
Format profile : Base Media
Codec ID : isom
File size : 5.89 MiB
Duration : 1mn 23s
Overall bit rate mode : Variable
Overall bit rate : 589 Kbps
Writing application : Lavf53.5.0

Video
ID : 1
Format : AVC
Format/Info : Advanced Video Codec
Format profile : Baseline@L3.1
Format settings, CABAC : No
Format settings, ReFrames : 2 frames
Codec ID : avc1
Codec ID/Info : Advanced Video Coding
Duration : 1mn 23s
Bit rate : 512 Kbps
Width : 134 pixels
Height : 238 pixels
Display aspect ratio : 0.563
Frame rate mode : Constant
Frame rate : 30.000 fps
Color space : YUV
Chroma subsampling : 4:2:0
Bit depth : 8 bits
Scan type : Progressive
Bits/(Pixel*Frame) : 0.535
Stream size : 5.10 MiB (87%)
Writing library : x264 core 119
Encoding settings : cabac=0 / ref=2 / deblock=1:0:0 / analyse=0×1:0×111 / me=hex / subme=6 / psy=1 / psy_rd=1.00:0.00 / mixed_ref=0 / me_range=16 / chroma_me=1 / trellis=0 / 8x8dct=0 / cqm=0 / deadzone=21,11 / fast_pskip=1 / chroma_qp_offset=-2 / threads=1 / sliced_threads=0 / nr=0 / decimate=1 / interlaced=0 / bluray_compat=0 / constrained_intra=0 / bframes=0 / weightp=0 / keyint=250 / keyint_min=25 / scenecut=40 / intra_refresh=0 / rc_lookahead=40 / rc=2pass / mbtree=1 / bitrate=512 / ratetol=1.0 / qcomp=0.50 / qpmin=10 / qpmax=51 / qpstep=4 / cplxblur=20.0 / qblur=0.5 / ip_ratio=1.41 / aq=1:1.00
Tagged date : UTC 2014-10-01 04:51:44

Audio
ID : 2
Format : AAC
Format/Info : Advanced Audio Codec
Format profile : LC
Codec ID : 40
Duration : 1mn 23s
Bit rate mode : Variable
Bit rate : 35.8 Kbps
Maximum bit rate : 56.0 Kbps
Channel(s) : 2 channels
Channel positions : Front: L R
Sampling rate : 44.1 KHz
Compression mode : Lossy
Stream size : 367 KiB (6%)
Tagged date : UTC 2014-10-01 04:51:44

Download :

http://dfiles.ru/files/6h7bnbgvc
http://rapidgator.net/file/3ff067a4f7eec22bf39116ed917228c9/Twerk_it,_shake_it,_squeeze_it,_leave_it-3582849.zip.html

Twerk That Ass….-3620410

 
General

Format : MPEG-4
Format profile : Base Media
Codec ID : isom
File size : 17.2 MiB
Duration : 3mn 58s
Overall bit rate : 604 Kbps
Writing application : Lavf53.5.0

Video
ID : 1
Format : AVC
Format/Info : Advanced Video Codec
Format profile : Baseline@L3.1
Format settings, CABAC : No
Format settings, ReFrames : 2 frames
Codec ID : avc1
Codec ID/Info : Advanced Video Coding
Duration : 3mn 58s
Bit rate : 512 Kbps
Width : 320 pixels
Height : 240 pixels
Display aspect ratio : 4:3
Frame rate mode : Constant
Frame rate : 29.970 fps
Color space : YUV
Chroma subsampling : 4:2:0
Bit depth : 8 bits
Scan type : Progressive
Bits/(Pixel*Frame) : 0.222
Stream size : 14.5 MiB (85%)
Writing library : x264 core 125
Encoding settings : cabac=0 / ref=2 / deblock=1:0:0 / analyse=0×1:0×111 / me=hex / subme=6 / psy=1 / psy_rd=1.00:0.00 / mixed_ref=0 / me_range=16 / chroma_me=1 / trellis=0 / 8x8dct=0 / cqm=0 / deadzone=21,11 / fast_pskip=1 / chroma_qp_offset=-2 / threads=1 / lookahead_threads=1 / sliced_threads=0 / nr=0 / decimate=1 / interlaced=0 / bluray_compat=0 / constrained_intra=0 / bframes=0 / weightp=0 / keyint=250 / keyint_min=25 / scenecut=40 / intra_refresh=0 / rc_lookahead=40 / rc=2pass / mbtree=1 / bitrate=512 / ratetol=1.0 / qcomp=0.50 / qpmin=10 / qpmax=51 / qpstep=4 / cplxblur=20.0 / qblur=0.5 / ip_ratio=1.41 / aq=1:1.00
Tagged date : UTC 2014-10-10 22:46:34

Audio
ID : 2
Format : AAC
Format/Info : Advanced Audio Codec
Format profile : LC
Codec ID : 40
Duration : 3mn 58s
Bit rate mode : Constant
Bit rate : 56.0 Kbps
Channel(s) : 2 channels
Channel positions : Front: L R
Sampling rate : 22.05 KHz
Compression mode : Lossy
Stream size : 1.59 MiB (9%)
Tagged date : UTC 2014-10-10 22:46:34

Download :

http://dfiles.ru/files/dserl0di6
http://rapidgator.net/file/d2246155c957c2377c114089f38fd582/Twerk_That_Ass….-3620410.zip.html

Turkish Pelinsu- Twerk And Ass hole-3665201

 
General

Format : MPEG-4
Format profile : Base Media
Codec ID : isom
File size : 7.77 MiB
Duration : 1mn 48s
Overall bit rate mode : Variable
Overall bit rate : 599 Kbps
Performer : AHMET SELIM SAKAR
Writing application : Lavf53.5.0

Video
ID : 1
Format : AVC
Format/Info : Advanced Video Codec
Format profile : Baseline@L3.1
Format settings, CABAC : No
Format settings, ReFrames : 2 frames
Codec ID : avc1
Codec ID/Info : Advanced Video Coding
Duration : 1mn 48s
Bit rate : 512 Kbps
Width : 320 pixels
Height : 240 pixels
Display aspect ratio : 4:3
Frame rate mode : Constant
Frame rate : 25.000 fps
Color space : YUV
Chroma subsampling : 4:2:0
Bit depth : 8 bits
Scan type : Progressive
Bits/(Pixel*Frame) : 0.267
Stream size : 6.63 MiB (85%)
Writing library : x264 core 119
Encoding settings : cabac=0 / ref=2 / deblock=1:0:0 / analyse=0×1:0×111 / me=hex / subme=6 / psy=1 / psy_rd=1.00:0.00 / mixed_ref=0 / me_range=16 / chroma_me=1 / trellis=0 / 8x8dct=0 / cqm=0 / deadzone=21,11 / fast_pskip=1 / chroma_qp_offset=-2 / threads=1 / sliced_threads=0 / nr=0 / decimate=1 / interlaced=0 / bluray_compat=0 / constrained_intra=0 / bframes=0 / weightp=0 / keyint=250 / keyint_min=25 / scenecut=40 / intra_refresh=0 / rc_lookahead=40 / rc=2pass / mbtree=1 / bitrate=512 / ratetol=1.0 / qcomp=0.50 / qpmin=10 / qpmax=51 / qpstep=4 / cplxblur=20.0 / qblur=0.5 / ip_ratio=1.41 / aq=1:1.00
Language : Turkish
Tagged date : UTC 2014-10-21 12:07:59

Audio
ID : 2
Format : AAC
Format/Info : Advanced Audio Codec
Format profile : LC
Codec ID : 40
Duration : 1mn 48s
Bit rate mode : Variable
Bit rate : 48.0 Kbps
Maximum bit rate : 56.0 Kbps
Channel(s) : 2 channels
Channel positions : Front: L R
Sampling rate : 44.1 KHz
Compression mode : Lossy
Stream size : 647 KiB (8%)
Language : Turkish
Tagged date : UTC 2014-10-21 12:07:59

Download :

http://dfiles.ru/files/5nhqf0e2j
http://rapidgator.net/file/9f690cac68e6fddfea010f41fff2be81/Turkish_Pelinsu-_Twerk_And_Ass_hole-3665201.zip.html

Titty Twerk 2-3612980

 
General

Format : MPEG-4
Format profile : Base Media
Codec ID : isom
File size : 614 KiB
Duration : 9s 100ms
Overall bit rate : 553 Kbps
Writing application : Lavf53.5.0

Video
ID : 1
Format : AVC
Format/Info : Advanced Video Codec
Format profile : Baseline@L3.1
Format settings, CABAC : No
Format settings, ReFrames : 2 frames
Codec ID : avc1
Codec ID/Info : Advanced Video Coding
Duration : 9s 100ms
Bit rate : 512 Kbps
Width : 426 pixels
Height : 240 pixels
Display aspect ratio : 16:9
Frame rate mode : Constant
Frame rate : 30.000 fps
Color space : YUV
Chroma subsampling : 4:2:0
Bit depth : 8 bits
Scan type : Progressive
Bits/(Pixel*Frame) : 0.167
Stream size : 577 KiB (94%)
Writing library : x264 core 119
Encoding settings : cabac=0 / ref=2 / deblock=1:0:0 / analyse=0×1:0×111 / me=hex / subme=6 / psy=1 / psy_rd=1.00:0.00 / mixed_ref=0 / me_range=16 / chroma_me=1 / trellis=0 / 8x8dct=0 / cqm=0 / deadzone=21,11 / fast_pskip=1 / chroma_qp_offset=-2 / threads=1 / sliced_threads=0 / nr=0 / decimate=1 / interlaced=0 / bluray_compat=0 / constrained_intra=0 / bframes=0 / weightp=0 / keyint=250 / keyint_min=25 / scenecut=40 / intra_refresh=0 / rc_lookahead=40 / rc=2pass / mbtree=1 / bitrate=512 / ratetol=1.0 / qcomp=0.50 / qpmin=10 / qpmax=51 / qpstep=4 / cplxblur=20.0 / qblur=0.5 / ip_ratio=1.41 / aq=1:1.00
Tagged date : UTC 2014-10-09 06:56:08

Download :

http://rapidgator.net/file/6d2de5832275a81e6e635b21fa95c9c8/Titty_Twerk_2-3612980.zip.html
http://dfiles.ru/files/24hlvty90

Tigre Girl TWERK – All Up n Thru Dere-3488548

 
General

Format : MPEG-4
Format profile : Base Media
Codec ID : isom
File size : 17.1 MiB
Duration : 1mn 4s
Overall bit rate : 2 223 Kbps
Writing application : Lavf53.5.0

Video
ID : 1
Format : AVC
Format/Info : Advanced Video Codec
Format profile : Baseline@L3.1
Format settings, CABAC : No
Format settings, ReFrames : 2 frames
Codec ID : avc1
Codec ID/Info : Advanced Video Coding
Duration : 1mn 4s
Duration_FirstFrame : -31ms
Duration_LastFrame : -31ms
Bit rate : 2 048 Kbps
Width : 1 280 pixels
Height : 720 pixels
Display aspect ratio : 16:9
Frame rate mode : Constant
Frame rate : 29.917 fps
Color space : YUV
Chroma subsampling : 4:2:0
Bit depth : 8 bits
Scan type : Progressive
Bits/(Pixel*Frame) : 0.074
Stream size : 15.8 MiB (92%)
Writing library : x264 core 119
Encoding settings : cabac=0 / ref=2 / deblock=1:0:0 / analyse=0×1:0×111 / me=hex / subme=6 / psy=1 / psy_rd=1.00:0.00 / mixed_ref=0 / me_range=16 / chroma_me=1 / trellis=0 / 8x8dct=0 / cqm=0 / deadzone=21,11 / fast_pskip=1 / chroma_qp_offset=-2 / threads=1 / sliced_threads=0 / nr=0 / decimate=1 / interlaced=0 / bluray_compat=0 / constrained_intra=0 / bframes=0 / weightp=0 / keyint=250 / keyint_min=25 / scenecut=40 / intra_refresh=0 / rc_lookahead=40 / rc=2pass / mbtree=1 / bitrate=2048 / ratetol=1.0 / qcomp=0.50 / qpmin=10 / qpmax=51 / qpstep=4 / cplxblur=20.0 / qblur=0.5 / ip_ratio=1.41 / aq=1:1.00
Tagged date : UTC 2014-09-06 22:59:34

Audio
ID : 2
Format : AAC
Format/Info : Advanced Audio Codec
Format profile : LC
Codec ID : 40
Duration : 1mn 4s
Bit rate mode : Constant
Bit rate : 59.0 Kbps
Channel(s) : 2 channels
Channel positions : Front: L R
Sampling rate : 44.1 KHz
Compression mode : Lossy
Stream size : 464 KiB (3%)
Tagged date : UTC 2014-09-06 22:59:34

Download :

http://dfiles.ru/files/bnw7to2xb
http://rapidgator.net/file/6d5d07e6f669921a4a5426ed8abe1176/Tigre_Girl_TWERK_-_All_Up_n_Thru_Dere-3488548.zip.html

Tieaha TWERK – Hydroulics-3311840

 
General

Format : MPEG-4
Format profile : Base Media
Codec ID : isom
File size : 7.30 MiB
Duration : 1mn 40s
Overall bit rate : 610 Kbps
Writing application : Lavf53.5.0

Video
ID : 1
Format : AVC
Format/Info : Advanced Video Codec
Format profile : High@L2.0
Format settings, CABAC : Yes
Format settings, ReFrames : 4 frames
Codec ID : avc1
Codec ID/Info : Advanced Video Coding
Duration : 1mn 40s
Bit rate : 512 Kbps
Width : 134 pixels
Height : 238 pixels
Display aspect ratio : 0.563
Frame rate mode : Constant
Frame rate : 30.000 fps
Color space : YUV
Chroma subsampling : 4:2:0
Bit depth : 8 bits
Scan type : Progressive
Bits/(Pixel*Frame) : 0.535
Stream size : 6.14 MiB (84%)
Writing library : x264 core 119
Encoding settings : cabac=1 / ref=2 / deblock=1:0:0 / analyse=0×3:0×113 / me=hex / subme=6 / psy=1 / psy_rd=1.00:0.00 / mixed_ref=0 / me_range=16 / chroma_me=1 / trellis=0 / 8x8dct=1 / cqm=0 / deadzone=21,11 / fast_pskip=1 / chroma_qp_offset=-2 / threads=1 / sliced_threads=0 / nr=0 / decimate=1 / interlaced=0 / bluray_compat=0 / constrained_intra=0 / bframes=16 / b_pyramid=2 / b_adapt=0 / b_bias=0 / direct=2 / weightb=1 / open_gop=0 / weightp=2 / keyint=250 / keyint_min=25 / scenecut=40 / intra_refresh=0 / rc_lookahead=40 / rc=2pass / mbtree=1 / bitrate=512 / ratetol=1.0 / qcomp=0.50 / qpmin=10 / qpmax=51 / qpstep=4 / cplxblur=20.0 / qblur=0.5 / ip_ratio=1.41 / aq=1:1.00
Tagged date : UTC 2014-07-22 08:43:15

Audio
ID : 2
Format : AAC
Format/Info : Advanced Audio Codec
Format profile : LC
Codec ID : 40
Duration : 1mn 40s
Bit rate mode : Constant
Bit rate : 59.0 Kbps
Channel(s) : 2 channels
Channel positions : Front: L R
Sampling rate : 44.1 KHz
Compression mode : Lossy
Stream size : 723 KiB (10%)
Tagged date : UTC 2014-07-22 08:43:15

Download :

http://dfiles.ru/files/u86zc1ag6
http://rapidgator.net/file/78a330402fb5927d01c3a7c1be1290df/Tieaha_TWERK_-_Hydroulics-3311840.zip.html

TWERK- THROW IT BACK- ACE MARLEY TWERK POV-1746996

 
General

Format : MPEG-4
Format profile : Base Media
Codec ID : isom
File size : 14.4 MiB
Duration : 3mn 20s
Overall bit rate mode : Variable
Overall bit rate : 602 Kbps
Writing application : Lavf53.5.0

Video
ID : 1
Format : AVC
Format/Info : Advanced Video Codec
Format profile : High@L2.0
Format settings, CABAC : Yes
Format settings, ReFrames : 4 frames
Codec ID : avc1
Codec ID/Info : Advanced Video Coding
Duration : 3mn 20s
Bit rate : 512 Kbps
Width : 320 pixels
Height : 180 pixels
Display aspect ratio : 16:9
Frame rate mode : Constant
Frame rate : 15.000 fps
Color space : YUV
Chroma subsampling : 4:2:0
Bit depth : 8 bits
Scan type : Progressive
Bits/(Pixel*Frame) : 0.593
Stream size : 12.3 MiB (85%)
Writing library : x264 core 119
Encoding settings : cabac=1 / ref=2 / deblock=1:0:0 / analyse=0×3:0×113 / me=hex / subme=6 / psy=1 / psy_rd=1.00:0.00 / mixed_ref=0 / me_range=16 / chroma_me=1 / trellis=0 / 8x8dct=1 / cqm=0 / deadzone=21,11 / fast_pskip=1 / chroma_qp_offset=-2 / threads=1 / sliced_threads=0 / nr=0 / decimate=1 / interlaced=0 / bluray_compat=0 / constrained_intra=0 / bframes=16 / b_pyramid=2 / b_adapt=0 / b_bias=0 / direct=2 / weightb=1 / open_gop=0 / weightp=2 / keyint=250 / keyint_min=25 / scenecut=40 / intra_refresh=0 / rc_lookahead=40 / rc=2pass / mbtree=1 / bitrate=512 / ratetol=1.0 / qcomp=0.50 / qpmin=10 / qpmax=51 / qpstep=4 / cplxblur=20.0 / qblur=0.5 / ip_ratio=1.41 / aq=1:1.00
Tagged date : UTC 2013-02-14 14:21:18

Audio
ID : 2
Format : AAC
Format/Info : Advanced Audio Codec
Format profile : LC
Codec ID : 40
Duration : 3mn 20s
Bit rate mode : Variable
Bit rate : 55.8 Kbps
Maximum bit rate : 57.5 Kbps
Channel(s) : 2 channels
Channel positions : Front: L R
Sampling rate : 22.05 KHz
Compression mode : Lossy
Stream size : 1.33 MiB (9%)
Tagged date : UTC 2013-02-14 14:21:18

Download :

http://rapidgator.net/file/a13c6d3afda88036d554eb0216ea655d/TWERK-_THROW_IT_BACK-_ACE_MARLEY_TWERK_POV-1746996.zip.html
http://dfiles.ru/files/uulb4jpe5