twerking

Wwe diva paige twerking her ass on a lucky guys cock-3668239

 
General

Format : MPEG-4
Format profile : Base Media
Codec ID : isom
File size : 482 KiB
Duration : 7s 105ms
Overall bit rate mode : Variable
Overall bit rate : 556 Kbps
Writing application : Lavf53.5.0

Video
ID : 1
Format : AVC
Format/Info : Advanced Video Codec
Format profile : Baseline@L3.1
Format settings, CABAC : No
Format settings, ReFrames : 2 frames
Codec ID : avc1
Codec ID/Info : Advanced Video Coding
Duration : 7s 66ms
Bit rate : 512 Kbps
Width : 320 pixels
Height : 240 pixels
Display aspect ratio : 4:3
Frame rate mode : Constant
Frame rate : 15.000 fps
Color space : YUV
Chroma subsampling : 4:2:0
Bit depth : 8 bits
Scan type : Progressive
Bits/(Pixel*Frame) : 0.444
Stream size : 447 KiB (93%)
Writing library : x264 core 125
Encoding settings : cabac=0 / ref=2 / deblock=1:0:0 / analyse=0×1:0×111 / me=hex / subme=6 / psy=1 / psy_rd=1.00:0.00 / mixed_ref=0 / me_range=16 / chroma_me=1 / trellis=0 / 8x8dct=0 / cqm=0 / deadzone=21,11 / fast_pskip=1 / chroma_qp_offset=-2 / threads=1 / lookahead_threads=1 / sliced_threads=0 / nr=0 / decimate=1 / interlaced=0 / bluray_compat=0 / constrained_intra=0 / bframes=0 / weightp=0 / keyint=250 / keyint_min=25 / scenecut=40 / intra_refresh=0 / rc_lookahead=40 / rc=2pass / mbtree=1 / bitrate=512 / ratetol=1.0 / qcomp=0.50 / qpmin=10 / qpmax=51 / qpstep=4 / cplxblur=20.0 / qblur=0.5 / ip_ratio=1.41 / aq=1:1.00
Tagged date : UTC 2014-10-22 13:01:02

Audio
ID : 2
Format : AAC
Format/Info : Advanced Audio Codec
Format profile : LC
Codec ID : 40
Duration : 7s 105ms
Bit rate mode : Variable
Bit rate : 3 119 bps
Maximum bit rate : 56.0 Kbps
Channel(s) : 2 channels
Channel positions : Front: L R
Sampling rate : 44.1 KHz
Compression mode : Lossy
Stream size : 2.71 KiB (1%)
Tagged date : UTC 2014-10-22 13:01:02

Download :

http://dfiles.ru/files/n0zoeaawu
http://rapidgator.net/file/9e6a3be70a5bbe00899dd311b8030e42/Wwe_diva_paige_twerking_her_ass_on_a_lucky_guys_cock-3668239.zip.html

Whooty twerking ass-3678267

 
General

Format : MPEG-4
Format profile : Base Media
Codec ID : isom
File size : 10.1 MiB
Duration : 2mn 17s
Overall bit rate : 619 Kbps
Writing application : Lavf53.5.0

Video
ID : 1
Format : AVC
Format/Info : Advanced Video Codec
Format profile : Baseline@L3.1
Format settings, CABAC : No
Format settings, ReFrames : 2 frames
Codec ID : avc1
Codec ID/Info : Advanced Video Coding
Duration : 2mn 16s
Bit rate : 512 Kbps
Width : 426 pixels
Height : 240 pixels
Display aspect ratio : 16:9
Frame rate mode : Constant
Frame rate : 29.970 fps
Color space : YUV
Chroma subsampling : 4:2:0
Bit depth : 8 bits
Scan type : Progressive
Bits/(Pixel*Frame) : 0.167
Stream size : 8.35 MiB (83%)
Writing library : x264 core 125
Encoding settings : cabac=0 / ref=2 / deblock=1:0:0 / analyse=0×1:0×111 / me=hex / subme=6 / psy=1 / psy_rd=1.00:0.00 / mixed_ref=0 / me_range=16 / chroma_me=1 / trellis=0 / 8x8dct=0 / cqm=0 / deadzone=21,11 / fast_pskip=1 / chroma_qp_offset=-2 / threads=1 / lookahead_threads=1 / sliced_threads=0 / nr=0 / decimate=1 / interlaced=0 / bluray_compat=0 / constrained_intra=0 / bframes=0 / weightp=0 / keyint=250 / keyint_min=25 / scenecut=40 / intra_refresh=0 / rc_lookahead=40 / rc=2pass / mbtree=1 / bitrate=512 / ratetol=1.0 / qcomp=0.50 / qpmin=10 / qpmax=51 / qpstep=4 / cplxblur=20.0 / qblur=0.5 / ip_ratio=1.41 / aq=1:1.00
Tagged date : UTC 2014-10-24 20:25:28

Audio
ID : 2
Format : AAC
Format/Info : Advanced Audio Codec
Format profile : LC
Codec ID : 40
Duration : 2mn 17s
Bit rate mode : Constant
Bit rate : 64.2 Kbps
Channel(s) : 2 channels
Channel positions : Front: L R
Sampling rate : 48.0 KHz
Compression mode : Lossy
Stream size : 1.05 MiB (10%)
Tagged date : UTC 2014-10-24 20:25:28

Download :

http://rapidgator.net/file/e9ffb06d56bd5cdea4aa38e1a85dda4a/Whooty_twerking_ass-3678267.zip.html
http://dfiles.ru/files/er00sc6jw

Whooty twerking ass 5-3700910

 
General

Format : MPEG-4
Format profile : Base Media
Codec ID : isom
File size : 10.2 MiB
Duration : 2mn 18s
Overall bit rate : 618 Kbps
Writing application : Lavf53.5.0

Video
ID : 1
Format : AVC
Format/Info : Advanced Video Codec
Format profile : Baseline@L3.1
Format settings, CABAC : No
Format settings, ReFrames : 2 frames
Codec ID : avc1
Codec ID/Info : Advanced Video Coding
Duration : 2mn 18s
Bit rate : 512 Kbps
Width : 320 pixels
Height : 240 pixels
Display aspect ratio : 4:3
Frame rate mode : Constant
Frame rate : 30.000 fps
Color space : YUV
Chroma subsampling : 4:2:0
Bit depth : 8 bits
Scan type : Progressive
Bits/(Pixel*Frame) : 0.222
Stream size : 8.43 MiB (83%)
Writing library : x264 core 125
Encoding settings : cabac=0 / ref=2 / deblock=1:0:0 / analyse=0×1:0×111 / me=hex / subme=6 / psy=1 / psy_rd=1.00:0.00 / mixed_ref=0 / me_range=16 / chroma_me=1 / trellis=0 / 8x8dct=0 / cqm=0 / deadzone=21,11 / fast_pskip=1 / chroma_qp_offset=-2 / threads=1 / lookahead_threads=1 / sliced_threads=0 / nr=0 / decimate=1 / interlaced=0 / bluray_compat=0 / constrained_intra=0 / bframes=0 / weightp=0 / keyint=250 / keyint_min=25 / scenecut=40 / intra_refresh=0 / rc_lookahead=40 / rc=2pass / mbtree=1 / bitrate=512 / ratetol=1.0 / qcomp=0.50 / qpmin=10 / qpmax=51 / qpstep=4 / cplxblur=20.0 / qblur=0.5 / ip_ratio=1.41 / aq=1:1.00
Language : English
Tagged date : UTC 2014-10-29 05:23:13

Audio
ID : 2
Format : AAC
Format/Info : Advanced Audio Codec
Format profile : LC
Codec ID : 40
Duration : 2mn 18s
Bit rate mode : Constant
Bit rate : 64.2 Kbps
Channel(s) : 2 channels
Channel positions : Front: L R
Sampling rate : 48.0 KHz
Compression mode : Lossy
Stream size : 1.06 MiB (10%)
Language : English
Tagged date : UTC 2014-10-29 05:23:13

Download :

http://rapidgator.net/file/6900ce371b35517c08ca10ae952c4845/Whooty_twerking_ass_5-3700910.zip.html
http://dfiles.ru/files/qahwtf5li

Werk Me Twerking Music Compilation-3671177

 
General

Format : MPEG-4
Format profile : Base Media
Codec ID : isom
File size : 15.7 MiB
Duration : 3mn 41s
Overall bit rate mode : Variable
Overall bit rate : 594 Kbps
Writing application : Lavf53.5.0

Video
ID : 1
Format : AVC
Format/Info : Advanced Video Codec
Format profile : Baseline@L3.1
Format settings, CABAC : No
Format settings, ReFrames : 2 frames
Codec ID : avc1
Codec ID/Info : Advanced Video Coding
Duration : 3mn 41s
Bit rate : 512 Kbps
Width : 426 pixels
Height : 240 pixels
Display aspect ratio : 16:9
Frame rate mode : Constant
Frame rate : 25.000 fps
Color space : YUV
Chroma subsampling : 4:2:0
Bit depth : 8 bits
Scan type : Progressive
Bits/(Pixel*Frame) : 0.200
Stream size : 13.5 MiB (86%)
Writing library : x264 core 125
Encoding settings : cabac=0 / ref=2 / deblock=1:0:0 / analyse=0×1:0×111 / me=hex / subme=6 / psy=1 / psy_rd=1.00:0.00 / mixed_ref=0 / me_range=16 / chroma_me=1 / trellis=0 / 8x8dct=0 / cqm=0 / deadzone=21,11 / fast_pskip=1 / chroma_qp_offset=-2 / threads=1 / lookahead_threads=1 / sliced_threads=0 / nr=0 / decimate=1 / interlaced=0 / bluray_compat=0 / constrained_intra=0 / bframes=0 / weightp=0 / keyint=250 / keyint_min=25 / scenecut=40 / intra_refresh=0 / rc_lookahead=40 / rc=2pass / mbtree=1 / bitrate=512 / ratetol=1.0 / qcomp=0.50 / qpmin=10 / qpmax=51 / qpstep=4 / cplxblur=20.0 / qblur=0.5 / ip_ratio=1.41 / aq=1:1.00
Tagged date : UTC 2014-10-23 08:05:46

Audio
ID : 2
Format : AAC
Format/Info : Advanced Audio Codec
Format profile : LC
Codec ID : 40
Duration : 3mn 41s
Bit rate mode : Variable
Bit rate : 48.0 Kbps
Maximum bit rate : 56.0 Kbps
Channel(s) : 2 channels
Channel positions : Front: L R
Sampling rate : 22.05 KHz
Compression mode : Lossy
Stream size : 1.30 MiB (8%)
Tagged date : UTC 2014-10-23 08:05:46

Download :

http://rapidgator.net/file/5247cb76cab99fe8c214bc9b3c781757/Werk_Me_Twerking_Music_Compilation-3671177.zip.html
http://dfiles.ru/files/k17nwnrwe

Twerking social media slut with huge juicy bubble butt-3469619

 
General

Format : MPEG-4
Format profile : Base Media
Codec ID : isom
File size : 14.6 MiB
Duration : 3mn 22s
Overall bit rate mode : Variable
Overall bit rate : 607 Kbps
Recorded date : 2014-08-31T22:03:29-05:00
Writing application : Lavf53.5.0

Video
ID : 1
Format : AVC
Format/Info : Advanced Video Codec
Format profile : Baseline@L3.1
Format settings, CABAC : No
Format settings, ReFrames : 2 frames
Codec ID : avc1
Codec ID/Info : Advanced Video Coding
Duration : 3mn 22s
Bit rate : 512 Kbps
Width : 360 pixels
Height : 240 pixels
Display aspect ratio : 3:2
Frame rate mode : Constant
Frame rate : 29.970 fps
Color space : YUV
Chroma subsampling : 4:2:0
Bit depth : 8 bits
Scan type : Progressive
Bits/(Pixel*Frame) : 0.198
Stream size : 12.3 MiB (84%)
Writing library : x264 core 125
Encoding settings : cabac=0 / ref=2 / deblock=1:0:0 / analyse=0×1:0×111 / me=hex / subme=6 / psy=1 / psy_rd=1.00:0.00 / mixed_ref=0 / me_range=16 / chroma_me=1 / trellis=0 / 8x8dct=0 / cqm=0 / deadzone=21,11 / fast_pskip=1 / chroma_qp_offset=-2 / threads=1 / lookahead_threads=1 / sliced_threads=0 / nr=0 / decimate=1 / interlaced=0 / bluray_compat=0 / constrained_intra=0 / bframes=0 / weightp=0 / keyint=250 / keyint_min=25 / scenecut=40 / intra_refresh=0 / rc_lookahead=40 / rc=2pass / mbtree=1 / bitrate=512 / ratetol=1.0 / qcomp=0.50 / qpmin=10 / qpmax=51 / qpstep=4 / cplxblur=20.0 / qblur=0.5 / ip_ratio=1.41 / aq=1:1.00
Tagged date : UTC 2014-09-02 18:13:42

Audio
ID : 2
Format : AAC
Format/Info : Advanced Audio Codec
Format profile : LC
Codec ID : 40
Duration : 3mn 22s
Bit rate mode : Variable
Bit rate : 53.5 Kbps
Maximum bit rate : 56.0 Kbps
Channel(s) : 2 channels
Channel positions : Front: L R
Sampling rate : 48.0 KHz
Compression mode : Lossy
Stream size : 1.29 MiB (9%)
Tagged date : UTC 2014-09-02 18:13:42

Download :

http://dfiles.ru/files/x7515guqp
http://rapidgator.net/file/b589fc609674ce0e25849b29e73faeff/Twerking_social_media_slut_with_huge_juicy_bubble_butt-3469619.zip.html

Twerking nora nalgona monterrey-3487796

 
General

Format : MPEG-4
Format profile : Base Media
Codec ID : isom
File size : 2.51 MiB
Duration : 34s 880ms
Overall bit rate mode : Variable
Overall bit rate : 604 Kbps
Writing application : Lavf53.5.0

Video
ID : 1
Format : AVC
Format/Info : Advanced Video Codec
Format profile : Baseline@L3.1
Format settings, CABAC : No
Format settings, ReFrames : 2 frames
Codec ID : avc1
Codec ID/Info : Advanced Video Coding
Duration : 34s 766ms
Bit rate : 512 Kbps
Width : 320 pixels
Height : 240 pixels
Display aspect ratio : 4:3
Frame rate mode : Constant
Frame rate : 30.000 fps
Color space : YUV
Chroma subsampling : 4:2:0
Bit depth : 8 bits
Scan type : Progressive
Bits/(Pixel*Frame) : 0.222
Stream size : 2.12 MiB (85%)
Writing library : x264 core 125
Encoding settings : cabac=0 / ref=2 / deblock=1:0:0 / analyse=0×1:0×111 / me=hex / subme=6 / psy=1 / psy_rd=1.00:0.00 / mixed_ref=0 / me_range=16 / chroma_me=1 / trellis=0 / 8x8dct=0 / cqm=0 / deadzone=21,11 / fast_pskip=1 / chroma_qp_offset=-2 / threads=1 / lookahead_threads=1 / sliced_threads=0 / nr=0 / decimate=1 / interlaced=0 / bluray_compat=0 / constrained_intra=0 / bframes=0 / weightp=0 / keyint=250 / keyint_min=25 / scenecut=40 / intra_refresh=0 / rc_lookahead=40 / rc=2pass / mbtree=1 / bitrate=512 / ratetol=1.0 / qcomp=0.50 / qpmin=10 / qpmax=51 / qpstep=4 / cplxblur=20.0 / qblur=0.5 / ip_ratio=1.41 / aq=1:1.00
Language : English
Tagged date : UTC 2014-09-07 02:45:47

Audio
ID : 2
Format : AAC
Format/Info : Advanced Audio Codec
Format profile : LC
Codec ID : 40
Duration : 34s 880ms
Bit rate mode : Variable
Bit rate : 55.2 Kbps
Maximum bit rate : 56.0 Kbps
Channel(s) : 2 channels
Channel positions : Front: L R
Sampling rate : 16.0 KHz
Compression mode : Lossy
Stream size : 235 KiB (9%)
Language : English
Tagged date : UTC 2014-09-07 02:45:47

Download :

http://rapidgator.net/file/ab596fb20c4028f90a34a9d025f6a27a/Twerking_nora_nalgona_monterrey-3487796.zip.html
http://dfiles.ru/files/xa0zlk5aj

Twerking in leggings-3645016

 
General

Format : MPEG-4
Format profile : Base Media
Codec ID : isom
File size : 1.98 MiB
Duration : 27s 654ms
Overall bit rate mode : Variable
Overall bit rate : 601 Kbps
Recorded date : 2014-10-11T08:57:28-0400
Writing application : Lavf53.5.0

Video
ID : 1
Format : AVC
Format/Info : Advanced Video Codec
Format profile : Baseline@L3.1
Format settings, CABAC : No
Format settings, ReFrames : 2 frames
Codec ID : avc1
Codec ID/Info : Advanced Video Coding
Duration : 27s 583ms
Bit rate : 512 Kbps
Width : 426 pixels
Height : 240 pixels
Display aspect ratio : 16:9
Frame rate mode : Constant
Frame rate : 24.000 fps
Color space : YUV
Chroma subsampling : 4:2:0
Bit depth : 8 bits
Scan type : Progressive
Bits/(Pixel*Frame) : 0.209
Stream size : 1.69 MiB (85%)
Writing library : x264 core 125
Encoding settings : cabac=0 / ref=2 / deblock=1:0:0 / analyse=0×1:0×111 / me=hex / subme=6 / psy=1 / psy_rd=1.00:0.00 / mixed_ref=0 / me_range=16 / chroma_me=1 / trellis=0 / 8x8dct=0 / cqm=0 / deadzone=21,11 / fast_pskip=1 / chroma_qp_offset=-2 / threads=1 / lookahead_threads=1 / sliced_threads=0 / nr=0 / decimate=1 / interlaced=0 / bluray_compat=0 / constrained_intra=0 / bframes=0 / weightp=0 / keyint=250 / keyint_min=25 / scenecut=40 / intra_refresh=0 / rc_lookahead=40 / rc=2pass / mbtree=1 / bitrate=512 / ratetol=1.0 / qcomp=0.50 / qpmin=10 / qpmax=51 / qpstep=4 / cplxblur=20.0 / qblur=0.5 / ip_ratio=1.41 / aq=1:1.00
Tagged date : UTC 2014-10-17 08:16:11

Audio
ID : 2
Format : AAC
Format/Info : Advanced Audio Codec
Format profile : LC
Codec ID : 40
Duration : 27s 654ms
Bit rate mode : Variable
Bit rate : 48.0 Kbps
Maximum bit rate : 56.0 Kbps
Channel(s) : 2 channels
Channel positions : Front: L R
Sampling rate : 44.1 KHz
Compression mode : Lossy
Stream size : 162 KiB (8%)
Tagged date : UTC 2014-10-17 08:16:11

Download :

http://rapidgator.net/file/ab82aed9f7de8a610d8d388fd1d33193/Twerking_in_leggings-3645016.zip.html
http://dfiles.ru/files/rjcrjnszy

Twerking dat ass-3709252

 
General

Format : MPEG-4
Format profile : Base Media
Codec ID : isom
File size : 1.20 MiB
Duration : 16s 997ms
Overall bit rate mode : Variable
Overall bit rate : 593 Kbps
Recorded date : 2014-01-19T00:57:21-0600
Writing application : Lavf53.5.0

Video
ID : 1
Format : AVC
Format/Info : Advanced Video Codec
Format profile : Baseline@L3.1
Format settings, CABAC : No
Format settings, ReFrames : 2 frames
Codec ID : avc1
Codec ID/Info : Advanced Video Coding
Duration : 16s 900ms
Bit rate : 512 Kbps
Width : 134 pixels
Height : 238 pixels
Display aspect ratio : 0.563
Frame rate mode : Constant
Frame rate : 30.000 fps
Color space : YUV
Chroma subsampling : 4:2:0
Bit depth : 8 bits
Scan type : Progressive
Bits/(Pixel*Frame) : 0.535
Stream size : 1.02 MiB (85%)
Writing library : x264 core 125
Encoding settings : cabac=0 / ref=2 / deblock=1:0:0 / analyse=0×1:0×111 / me=hex / subme=6 / psy=1 / psy_rd=1.00:0.00 / mixed_ref=0 / me_range=16 / chroma_me=1 / trellis=0 / 8x8dct=0 / cqm=0 / deadzone=21,11 / fast_pskip=1 / chroma_qp_offset=-2 / threads=1 / lookahead_threads=1 / sliced_threads=0 / nr=0 / decimate=1 / interlaced=0 / bluray_compat=0 / constrained_intra=0 / bframes=0 / weightp=0 / keyint=250 / keyint_min=25 / scenecut=40 / intra_refresh=0 / rc_lookahead=40 / rc=2pass / mbtree=1 / bitrate=512 / ratetol=1.0 / qcomp=0.50 / qpmin=10 / qpmax=51 / qpstep=4 / cplxblur=20.0 / qblur=0.5 / ip_ratio=1.41 / aq=1:1.00
Tagged date : UTC 2014-10-31 11:46:11

Audio
ID : 2
Format : AAC
Format/Info : Advanced Audio Codec
Format profile : LC
Codec ID : 40
Duration : 16s 997ms
Bit rate mode : Variable
Bit rate : 44.6 Kbps
Maximum bit rate : 56.0 Kbps
Channel(s) : 2 channels
Channel positions : Front: L R
Sampling rate : 44.1 KHz
Compression mode : Lossy
Stream size : 92.6 KiB (8%)
Tagged date : UTC 2014-10-31 11:46:11

Download :

http://rapidgator.net/file/e7f49d03753ea08025d74c886f787fc5/Twerking_dat_ass-3709252.zip.html
http://dfiles.ru/files/rjyypp5df

Twerking and wet pussy spanking-3622190

 
General

Format : MPEG-4
Format profile : Base Media
Codec ID : isom
File size : 2.19 MiB
Duration : 30s 0ms
Overall bit rate : 613 Kbps
Writing application : Lavf53.5.0

Video
ID : 1
Format : AVC
Format/Info : Advanced Video Codec
Format profile : Baseline@L3.1
Format settings, CABAC : No
Format settings, ReFrames : 2 frames
Codec ID : avc1
Codec ID/Info : Advanced Video Coding
Duration : 30s 0ms
Bit rate : 512 Kbps
Width : 426 pixels
Height : 240 pixels
Display aspect ratio : 16:9
Frame rate mode : Constant
Frame rate : 30.000 fps
Color space : YUV
Chroma subsampling : 4:2:0
Bit depth : 8 bits
Scan type : Progressive
Bits/(Pixel*Frame) : 0.167
Stream size : 1.81 MiB (83%)
Writing library : x264 core 119
Encoding settings : cabac=0 / ref=2 / deblock=1:0:0 / analyse=0×1:0×111 / me=hex / subme=6 / psy=1 / psy_rd=1.00:0.00 / mixed_ref=0 / me_range=16 / chroma_me=1 / trellis=0 / 8x8dct=0 / cqm=0 / deadzone=21,11 / fast_pskip=1 / chroma_qp_offset=-2 / threads=1 / sliced_threads=0 / nr=0 / decimate=1 / interlaced=0 / bluray_compat=0 / constrained_intra=0 / bframes=0 / weightp=0 / keyint=250 / keyint_min=25 / scenecut=40 / intra_refresh=0 / rc_lookahead=40 / rc=2pass / mbtree=1 / bitrate=512 / ratetol=1.0 / qcomp=0.50 / qpmin=10 / qpmax=51 / qpstep=4 / cplxblur=20.0 / qblur=0.5 / ip_ratio=1.41 / aq=1:1.00
Tagged date : UTC 2014-10-11 21:59:32

Audio
ID : 2
Format : AAC
Format/Info : Advanced Audio Codec
Format profile : LC
Codec ID : 40
Duration : 29s 909ms
Bit rate mode : Constant
Bit rate : 64.2 Kbps
Channel(s) : 2 channels
Channel positions : Front: L R
Sampling rate : 48.0 KHz
Compression mode : Lossy
Stream size : 234 KiB (10%)
Tagged date : UTC 2014-10-11 21:59:32

Download :

http://rapidgator.net/file/63079f32de7775816bb883a35219ccb3/Twerking_and_wet_pussy_spanking-3622190.zip.html
http://dfiles.ru/files/drs0p7nq0

Twerking Compilation-3504254

 
General

Format : MPEG-4
Format profile : Base Media
Codec ID : isom
File size : 16.5 MiB
Duration : 3mn 52s
Overall bit rate mode : Variable
Overall bit rate : 595 Kbps
Writing application : Lavf53.5.0

Video
ID : 1
Format : AVC
Format/Info : Advanced Video Codec
Format profile : Baseline@L3.1
Format settings, CABAC : No
Format settings, ReFrames : 2 frames
Codec ID : avc1
Codec ID/Info : Advanced Video Coding
Duration : 3mn 52s
Bit rate : 512 Kbps
Width : 426 pixels
Height : 240 pixels
Display aspect ratio : 16:9
Frame rate mode : Constant
Frame rate : 25.000 fps
Color space : YUV
Chroma subsampling : 4:2:0
Bit depth : 8 bits
Scan type : Progressive
Bits/(Pixel*Frame) : 0.200
Stream size : 14.2 MiB (86%)
Writing library : x264 core 119
Encoding settings : cabac=0 / ref=2 / deblock=1:0:0 / analyse=0×1:0×111 / me=hex / subme=6 / psy=1 / psy_rd=1.00:0.00 / mixed_ref=0 / me_range=16 / chroma_me=1 / trellis=0 / 8x8dct=0 / cqm=0 / deadzone=21,11 / fast_pskip=1 / chroma_qp_offset=-2 / threads=1 / sliced_threads=0 / nr=0 / decimate=1 / interlaced=0 / bluray_compat=0 / constrained_intra=0 / bframes=0 / weightp=0 / keyint=250 / keyint_min=25 / scenecut=40 / intra_refresh=0 / rc_lookahead=40 / rc=2pass / mbtree=1 / bitrate=512 / ratetol=1.0 / qcomp=0.50 / qpmin=10 / qpmax=51 / qpstep=4 / cplxblur=20.0 / qblur=0.5 / ip_ratio=1.41 / aq=1:1.00
Tagged date : UTC 2014-09-10 22:07:00

Audio
ID : 2
Format : AAC
Format/Info : Advanced Audio Codec
Format profile : LC
Codec ID : 40
Duration : 3mn 52s
Bit rate mode : Variable
Bit rate : 48.0 Kbps
Maximum bit rate : 56.0 Kbps
Channel(s) : 2 channels
Channel positions : Front: L R
Sampling rate : 22.05 KHz
Compression mode : Lossy
Stream size : 1.31 MiB (8%)
Tagged date : UTC 2014-09-10 22:07:00

Download :

http://rapidgator.net/file/6d6d56ea30f1f5eb54ada4f277d6be67/Twerking_Compilation-3504254.zip.html
http://dfiles.ru/files/wwk5qnqof